<?xml version="1.0" standalone="no"?>
<!DOCTYPE svg PUBLIC "-//W3C//DTD SVG 1.1//EN" "http://www.w3.org/Graphics/SVG/1.1/DTD/svg11.dtd" >
<svg xmlns="http://www.w3.org/2000/svg">
<metadata></metadata>
<defs>
<font id="helvetica_neue_lt_std46LtIt" horiz-adv-x="1138" >
<font-face units-per-em="2048" ascent="1462" descent="-586" />
<missing-glyph horiz-adv-x="569" />
<glyph unicode="&#xfb01;" horiz-adv-x="909" d="M37 0l209 948h-185l25 109h182l33 153q26 125 91.5 188.5t191.5 63.5q83 0 133 -14l-23 -107q-5 1 -34.5 7t-45.5 6q-87 0 -126.5 -34t-59.5 -116l-31 -147h209l-24 -109h-207l-209 -948h-129zM508 0l227 1057h129l-227 -1057h-129zM778 1255l45 207h129l-45 -207h-129z " />
<glyph unicode="&#xfb02;" horiz-adv-x="909" d="M37 0l209 948h-185l25 109h182l33 153q26 125 91.5 188.5t191.5 63.5q83 0 133 -14l-23 -107q-5 1 -34.5 7t-45.5 6q-87 0 -126.5 -34t-59.5 -116l-31 -147h209l-24 -109h-207l-209 -948h-129zM508 0l315 1462h129l-315 -1462h-129z" />
<glyph horiz-adv-x="2048" />
<glyph horiz-adv-x="2048" />
<glyph unicode="&#xd;" horiz-adv-x="2048" />
<glyph unicode=" "  horiz-adv-x="569" />
<glyph unicode="&#x09;" horiz-adv-x="569" />
<glyph unicode="&#xa0;" horiz-adv-x="569" />
<glyph unicode="!" horiz-adv-x="569" d="M47 0l47 217h174l-49 -217h-172zM172 365l109 643l98 454h137l-98 -456l-168 -641h-78z" />
<glyph unicode="&#x22;" horiz-adv-x="757" d="M281 965v497h118v-497h-118zM537 965v497h118v-497h-118z" />
<glyph unicode="#" d="M72 457l20 92h217l45 319h-225l21 93h217l63 454h102l-63 -454h289l63 454h103l-64 -454h215l-20 -93h-207l-45 -319h215l-21 -92h-206l-64 -457h-102l63 457h-289l-63 -457h-103l64 457h-225zM412 549h288l45 319h-288z" />
<glyph unicode="$" d="M-47 481h139q-17 -334 301 -381l129 607l-98 28q-289 83 -289 340q0 113 47 196.5t128 130.5t175 69t203 22l23 106h92l-25 -114q191 -25 298.5 -134t97.5 -315h-140q-1 158 -70 235t-210 95l-119 -561l41 -12q53 -16 86 -27t79 -30.5t75 -38t61 -46.5t50 -60t30 -76 t12 -95q0 -34 -6 -70.5t-23 -81.5t-43.5 -86t-71 -80.5t-101.5 -68.5t-139.5 -46.5t-180.5 -17.5q-33 0 -47 2l-37 -176h-92l41 187q-201 29 -313.5 154.5t-102.5 344.5zM274 1081q0 -45 14.5 -81.5t36 -60t57 -43.5t65 -31.5t73.5 -24.5l29 -9l115 543q-74 0 -140.5 -16 t-124 -48.5t-91.5 -91.5t-34 -137zM483 90q10 -2 31 -2q75 1 146 19.5t133 55t99.5 98.5t37.5 140q0 40 -10.5 73.5t-26 57.5t-43.5 45.5t-51 35t-61.5 27.5t-63 21.5t-66.5 18.5z" />
<glyph unicode="%" horiz-adv-x="1705" d="M137 958q0 70 14.5 138t45.5 131.5t75 112t107.5 77.5t138.5 29q125 0 200 -79.5t75 -205.5q0 -88 -23.5 -173t-68 -157t-119.5 -116.5t-168 -44.5q-132 0 -204.5 79t-72.5 209zM213 -66l1167 1547h113l-1169 -1547h-111zM246 954q0 -81 44 -136.5t126 -55.5 q69 0 123 38.5t84 99t45.5 126t15.5 129.5q0 92 -41.5 145.5t-130.5 53.5q-66 0 -119.5 -40.5t-84 -103t-46.5 -129t-16 -127.5zM913 258q0 69 14.5 137.5t45.5 132t75 111.5t107.5 77t138.5 29q125 0 200 -79t75 -205q0 -88 -23.5 -173t-68 -157.5t-119.5 -117t-168 -44.5 q-132 0 -204.5 79.5t-72.5 209.5zM1020 254q0 -81 44 -137t126 -56q69 0 123 38.5t84 99t45.5 126.5t15.5 130q0 92 -41.5 145t-130.5 53q-66 0 -119.5 -40.5t-84 -102.5t-46.5 -128.5t-16 -127.5z" />
<glyph unicode="&#x26;" horiz-adv-x="1251" d="M35 344q0 53 14 101t34.5 85t56.5 73t68 61.5t82 54.5t85 46.5t90 43.5q-40 60 -55 84t-40 72.5t-34.5 91.5t-9.5 92q0 140 100.5 226.5t251.5 86.5q132 0 226.5 -71t94.5 -195q0 -45 -13 -87t-31 -74.5t-51 -66.5t-59.5 -56.5t-72 -51.5t-71.5 -44.5t-74 -41.5l262 -407 q74 94 112 278h129q-51 -223 -174 -383l170 -262h-145l-111 172q-79 -97 -188.5 -150t-235.5 -53q-185 0 -298 98t-113 277zM164 336q0 -107 79.5 -182.5t192.5 -75.5q117 0 206.5 45.5t168.5 142.5l-289 453l-71 -35.5t-69 -38.5t-68.5 -45.5t-58 -51t-49.5 -61t-30 -69.5 t-12 -82zM455 1145q0 -20 3 -40.5t12 -46t14 -39.5t21 -44.5t20 -38t24 -41.5t20 -35q131 72 182 112q119 94 119 199q0 87 -55 135t-141 48q-90 0 -154.5 -59.5t-64.5 -149.5z" />
<glyph unicode="'" horiz-adv-x="569" d="M313 965v497h119v-497h-119z" />
<glyph unicode="(" horiz-adv-x="530" d="M100 385q17 313 148.5 592.5t351.5 515.5h107q-248 -303 -368 -605.5t-120 -680.5q0 -259 100 -598h-88q-150 419 -131 776z" />
<glyph unicode=")" horiz-adv-x="530" d="M-209 -391q248 303 368 605.5t120 680.5q0 256 -101 598h88q150 -419 131 -776q-17 -313 -148 -592.5t-351 -515.5h-107z" />
<glyph unicode="*" horiz-adv-x="720" d="M147 1262l43 71l209 -116l54 245h79l-51 -254l238 49l10 -77l-235 -52l122 -208l-77 -39l-121 217l-176 -189l-58 56l170 184z" />
<glyph unicode="+" horiz-adv-x="1228" d="M100 461v108h461v461h109v-461h460v-108h-460v-461h-109v461h-461z" />
<glyph unicode="," horiz-adv-x="569" d="M-25 -281l17 82q28 8 49.5 24t34.5 32t25 44t17.5 46.5t14.5 52.5h-86l49 217h172l-67 -287q-22 -95 -72 -139.5t-154 -71.5z" />
<glyph unicode="-" horiz-adv-x="757" d="M78 504l24 119h514l-24 -119h-514z" />
<glyph unicode="." horiz-adv-x="569" d="M47 0l47 217h174l-49 -217h-172z" />
<glyph unicode="/" horiz-adv-x="681" d="M-162 -31l842 1524h121l-842 -1524h-121z" />
<glyph unicode="0" d="M51 500q0 93 16.5 195.5t48 209.5t84.5 203t120.5 172t161 121t200.5 45q89 0 159 -26.5t115.5 -72t75.5 -110.5t42.5 -137t12.5 -156q0 -100 -15.5 -206t-46.5 -217.5t-84 -209t-122 -175t-166 -122.5t-211 -45q-89 0 -158 30.5t-112.5 80.5t-71 120.5t-38.5 143.5 t-11 156zM180 459q0 -79 14 -143.5t46 -120t91 -86.5t142 -31q85 0 159 46t125.5 122t91.5 169t63 193.5t34.5 189t11.5 160.5q0 379 -290 379q-99 0 -183.5 -65.5t-139 -165.5t-93.5 -221.5t-55.5 -230.5t-16.5 -195z" />
<glyph unicode="1" d="M274 1075l27 103q147 23 267.5 85t187.5 171h98l-307 -1434h-129l254 1190q-84 -45 -176.5 -69t-221.5 -46z" />
<glyph unicode="2" d="M-23 0q3 64 20.5 122t42 104t65 91t77.5 77.5t91.5 70t95.5 61.5t102 58q187 103 251 147q165 114 205 246q15 50 15 104q0 124 -85 190t-210 66q-158 0 -252 -110t-102 -273h-129q9 214 147 353t348 139q177 0 294.5 -98t117.5 -271q0 -75 -23.5 -141.5t-58.5 -115.5 t-93.5 -98.5t-111 -83t-127.5 -75.5q-25 -14 -80 -45t-83.5 -47t-77 -46t-77 -51.5t-66.5 -53.5t-61.5 -60.5t-47 -65t-37.5 -75.5h801l-23 -119h-928z" />
<glyph unicode="3" d="M18 455h129q-9 -173 71.5 -275t244.5 -102q162 0 274.5 99.5t112.5 256.5q0 71 -25.5 124t-71 82.5t-101 43.5t-122.5 14h-69l22 109h84q58 0 106.5 6t99.5 24.5t85.5 48t57 81t22.5 120.5q0 117 -81.5 183.5t-197.5 66.5q-152 0 -242 -90t-116 -250h-129 q38 213 160.5 331t331.5 118q81 0 153 -22.5t128 -65.5t89 -111.5t33 -154.5q0 -132 -84.5 -227t-216.5 -117v-5q103 -26 158 -107.5t55 -193.5q0 -109 -42.5 -200t-113.5 -150t-161.5 -91t-188.5 -32q-124 0 -214.5 35.5t-143.5 101t-76.5 152.5t-20.5 197z" />
<glyph unicode="4" d="M-2 356l22 121l879 957h115l-209 -969h217l-25 -109h-215l-77 -356h-130l78 356h-655zM147 465h529l162 743l-4 4z" />
<glyph unicode="5" d="M31 406h129q-13 -154 68.5 -241t236.5 -87q118 0 211.5 60t142.5 157t49 211q0 154 -80 245t-233 91q-224 0 -317 -166l-115 10l235 729h732l-29 -119h-627l-153 -458h4q112 112 315 112q182 0 289.5 -119.5t107.5 -302.5q0 -246 -151 -402.5t-395 -156.5 q-201 0 -316.5 118.5t-103.5 318.5z" />
<glyph unicode="6" d="M74 453q0 155 36 326.5t107 314.5q82 162 207.5 257t296.5 95q187 0 292 -95t105 -280h-129q-4 135 -72.5 200.5t-203.5 65.5q-64 0 -121 -22t-99.5 -56t-80.5 -86.5t-64 -103t-50 -116t-38 -114t-29 -108.5h5q58 97 157.5 150t218.5 53q185 0 297.5 -124t112.5 -310 q0 -233 -145 -382t-377 -149q-106 0 -188.5 37t-134 102.5t-77.5 153t-26 191.5zM203 416q0 -144 85 -241t228 -97q119 0 206.5 63.5t129 161t41.5 213.5q0 140 -92 224.5t-234 84.5q-106 0 -191 -59.5t-129 -152t-44 -197.5z" />
<glyph unicode="7" d="M207 0q98 333 323 694q197 317 476 602h-781l29 119h915l-26 -110q-283 -278 -508 -658q-188 -323 -285 -647h-143z" />
<glyph unicode="8" d="M37 377q0 167 107 275t272 126v4q-94 30 -149.5 109.5t-55.5 177.5q0 87 35.5 159.5t96 119.5t137.5 72.5t161 25.5q85 0 159 -19.5t135.5 -59t97.5 -108.5t36 -159q0 -133 -85.5 -228t-217.5 -116v-2q115 -33 176.5 -125t61.5 -215q0 -136 -75.5 -239.5t-190.5 -154.5 t-246 -51q-93 0 -174 25.5t-144.5 74.5t-100 128.5t-36.5 179.5zM166 375q0 -147 94 -222t244 -75q161 0 265.5 93t104.5 249q0 78 -27 134.5t-76 89t-110.5 48t-138.5 15.5q-153 0 -254.5 -91t-101.5 -241zM340 1063q0 -121 82.5 -184.5t208.5 -63.5q133 0 221 73.5 t88 203.5q0 83 -40 139.5t-104 81t-147 24.5q-128 0 -218.5 -73.5t-90.5 -200.5z" />
<glyph unicode="9" d="M16 344h129q4 -135 73 -200.5t204 -65.5q64 0 121 22t99.5 56t80 87t63.5 103t50 115.5t38 114t29 108.5h-4q-58 -97 -158 -150t-219 -53q-185 0 -297 124t-112 310q0 233 145 382t377 149q106 0 188.5 -36.5t134 -102.5t77.5 -153t26 -191q0 -155 -36 -326.5 t-107 -314.5q-83 -163 -208.5 -258t-295.5 -95q-187 0 -292.5 95t-105.5 280zM242 899q0 -140 91.5 -224.5t233.5 -84.5q106 0 191.5 59.5t129.5 152t44 197.5q0 144 -85 241t-229 97q-90 0 -163 -36.5t-118.5 -98.5t-70 -139.5t-24.5 -163.5z" />
<glyph unicode=":" horiz-adv-x="569" d="M47 0l47 217h174l-49 -217h-172zM231 807l48 217h174l-50 -217h-172z" />
<glyph unicode=";" horiz-adv-x="569" d="M-25 -281l17 82q28 8 49.5 24t34.5 32t25 44t17.5 46.5t14.5 52.5h-86l49 217h172l-67 -287q-22 -95 -72 -139.5t-154 -71.5zM231 807l48 217h174l-50 -217h-172z" />
<glyph unicode="&#x3c;" horiz-adv-x="1228" d="M94 463v110l1041 480v-113l-914 -422l914 -422v-112z" />
<glyph unicode="=" horiz-adv-x="1228" d="M100 262v109h1030v-109h-1030zM100 666v108h1030v-108h-1030z" />
<glyph unicode="&#x3e;" horiz-adv-x="1228" d="M94 -16v112l914 422l-914 422v113l1041 -480v-110z" />
<glyph unicode="?" horiz-adv-x="1099" d="M178 1010q9 223 139.5 353t350.5 130q79 0 149.5 -22t126.5 -63.5t88.5 -108.5t32.5 -150q0 -65 -19 -123t-46.5 -100.5t-75 -87.5t-87 -74.5t-100.5 -69.5q-101 -63 -142 -129.5t-67 -191.5h-129q8 59 20 105t34.5 85.5t41 65.5t57.5 60.5t66 54.5t84 61 q234 155 234 325q0 122 -74.5 188t-199.5 66q-156 0 -249.5 -104.5t-105.5 -269.5h-129zM301 0l47 217h174l-49 -217h-172z" />
<glyph unicode="@" horiz-adv-x="1638" d="M96 737q0 157 59 297.5t159.5 241t240 159t293.5 58.5q196 0 354 -80t249 -226t91 -331q0 -120 -42 -231.5t-109.5 -190t-153 -125.5t-170.5 -47q-55 0 -93 36t-44 101h-4q-53 -57 -120.5 -96t-139.5 -39q-123 0 -197 85.5t-74 211.5q0 85 22 170t65.5 160.5t101.5 134.5 t135 93t162 34q154 0 217 -172l51 133h108l-196 -590q-56 -170 26 -170q87 0 169 79t130 197t48 232q0 164 -80.5 288.5t-211.5 187.5t-290 63q-141 0 -262.5 -53t-205.5 -144.5t-131.5 -216t-47.5 -264.5q0 -184 84.5 -336t234 -239t332.5 -87q152 0 296 73.5t232 199.5 h105q-91 -167 -265 -266t-368 -99q-216 0 -390.5 101.5t-272 277t-97.5 389.5zM524 571q0 -91 47.5 -144.5t122.5 -53.5q55 0 108 32.5t94 85t72.5 116t48.5 128.5t17 119q0 72 -51 131t-111 59q-75 0 -142 -46.5t-111 -117.5t-69.5 -153.5t-25.5 -155.5z" />
<glyph unicode="A" horiz-adv-x="1290" d="M-154 0l895 1462h152l266 -1462h-145l-74 455h-668l-270 -455h-156zM342 573h578l-125 770h-4z" />
<glyph unicode="B" horiz-adv-x="1366" d="M10 0l318 1462h567q85 0 155.5 -18.5t126.5 -56.5t87.5 -104t31.5 -155q0 -142 -87 -241.5t-230 -122.5v-4q112 -13 181 -99t69 -202q0 -100 -32 -179.5t-86.5 -131t-131 -85.5t-160 -48.5t-178.5 -14.5h-631zM176 119h496q79 0 151.5 19t133 56t97 101.5t36.5 146.5 q0 62 -19.5 108.5t-51 75t-78 46t-94 24t-104.5 6.5h-440zM330 821h461q73 2 137 20t116 53t82.5 91.5t30.5 128.5q0 118 -72.5 173.5t-191.5 55.5h-451z" />
<glyph unicode="C" horiz-adv-x="1441" d="M70 592q0 176 54.5 338t153.5 287.5t251.5 200.5t334.5 75q156 0 276.5 -54.5t193.5 -167.5t75 -272h-139q-3 181 -112.5 278t-295.5 97q-128 0 -236.5 -44.5t-184 -120.5t-129 -178t-78.5 -216t-25 -235q0 -226 128.5 -359t354.5 -133q175 0 308.5 110.5t187.5 301.5 h139q-26 -115 -79.5 -209.5t-133.5 -167.5t-193.5 -113.5t-250.5 -40.5q-281 0 -440.5 170.5t-159.5 452.5z" />
<glyph unicode="D" horiz-adv-x="1402" d="M10 0l318 1462h471q154 0 263.5 -41t173 -120.5t92 -183t28.5 -240.5q0 -139 -32.5 -268t-99 -240t-160.5 -193t-225 -129t-284 -47h-545zM176 119h352h6q138 -1 252 41q116 42 195 116t133 175t78.5 214t24.5 238q0 440 -441 440h-334z" />
<glyph unicode="E" horiz-adv-x="1175" d="M10 0l312 1462h981l-27 -119h-840l-112 -528h784l-27 -119h-782l-123 -577h860l-26 -119h-1000z" />
<glyph unicode="F" horiz-adv-x="1099" d="M10 0l314 1462h936l-25 -119h-797l-112 -528h706l-22 -119h-711l-149 -696h-140z" />
<glyph unicode="G" horiz-adv-x="1517" d="M70 582q0 143 32 276t98.5 248.5t159.5 201.5t223.5 135.5t282.5 49.5q273 0 422.5 -126t157.5 -355h-139q-6 178 -127 270t-326 92q-140 0 -262.5 -67.5t-205 -177.5t-130 -251t-47.5 -288q0 -230 122 -366t351 -136q118 0 219.5 41t175 113.5t122.5 170t67 212.5h-504 l29 118h624l-153 -743h-95l25 246h-4q-177 -277 -531 -277q-281 0 -434 164t-153 449z" />
<glyph unicode="H" horiz-adv-x="1441" d="M10 0l312 1462h139l-135 -635h845l136 635h139l-311 -1462h-140l152 709h-846l-151 -709h-140z" />
<glyph unicode="I" horiz-adv-x="454" d="M10 0l309 1462h140l-309 -1462h-140z" />
<glyph unicode="J" horiz-adv-x="1024" d="M-41 303q0 87 18 166h140q-19 -112 -19 -180q0 -105 70.5 -153t183.5 -48q76 0 132 26.5t91 76.5t55 103t36 126l223 1042h139l-233 -1093q-43 -201 -147.5 -300.5t-305.5 -99.5q-174 0 -278.5 81.5t-104.5 252.5z" />
<glyph unicode="K" horiz-adv-x="1327" d="M10 0l312 1462h139l-168 -780l4 -4l944 784h195l-750 -610l522 -852h-159l-465 766l-326 -260l-108 -506h-140z" />
<glyph unicode="L" horiz-adv-x="1099" d="M10 0l316 1462h139l-289 -1343h809l-29 -119h-946z" />
<glyph unicode="M" horiz-adv-x="1744" d="M4 0l318 1462h202l228 -1312l802 1312h203l-313 -1462h-137l301 1323h-4l-809 -1323h-140l-235 1343h-4l-277 -1343h-135z" />
<glyph unicode="N" horiz-adv-x="1441" d="M0 0l315 1462h158l584 -1306h4l270 1306h135l-319 -1462h-154l-583 1307h-4l-273 -1307h-133z" />
<glyph unicode="O" horiz-adv-x="1517" d="M70 592q0 176 54.5 338t153.5 287.5t251.5 200.5t334.5 75q278 0 442 -167t164 -445q0 -144 -33 -278t-100.5 -249t-161.5 -201t-224 -135t-281 -49q-281 0 -440.5 170.5t-159.5 452.5zM209 580q0 -226 128.5 -359t354.5 -133q143 0 266 67.5t203 176t125 243t45 271.5 q0 116 -28.5 211t-85 166.5t-147 111t-208.5 39.5q-128 0 -236.5 -44.5t-184 -120.5t-129 -178t-78.5 -216t-25 -235z" />
<glyph unicode="P" horiz-adv-x="1290" d="M10 0l316 1462h589q169 0 279.5 -97.5t110.5 -262.5q0 -223 -139.5 -349t-364.5 -126h-516l-135 -627h-140zM311 745h494q156 0 258 90.5t102 245.5q0 139 -77.5 200.5t-219.5 61.5h-428z" />
<glyph unicode="Q" horiz-adv-x="1517" d="M70 592q0 176 54.5 338t153.5 287.5t251.5 200.5t334.5 75q278 0 442 -167t164 -445q0 -230 -85 -430t-242 -324l186 -174l-82 -84l-205 192q-162 -92 -372 -92q-281 0 -440.5 170.5t-159.5 452.5zM209 580q0 -226 128.5 -359t354.5 -133q135 0 254 66l-164 151l80 84 l185 -172q134 103 209 274.5t75 354.5q0 116 -28.5 211t-85 166.5t-147 111t-208.5 39.5q-128 0 -236.5 -44.5t-184 -120.5t-129 -178t-78.5 -216t-25 -235z" />
<glyph unicode="R" horiz-adv-x="1327" d="M10 0l312 1462h622q185 0 284 -92.5t99 -271.5q0 -162 -105 -276t-266 -124v-4q187 -40 187 -262q0 -51 -10.5 -153t-10.5 -152q0 -91 25 -127h-143q-10 6 -15.5 63.5t-5.5 86.5q0 43 10.5 131t10.5 131q0 237 -201 237h-516l-137 -649h-140zM313 768h494q167 0 274 81.5 t107 237.5q0 131 -59 193.5t-191 62.5h-502z" />
<glyph unicode="S" horiz-adv-x="1290" d="M23 481h139q-1 -17 -1 -33q0 -180 102 -266q111 -94 321 -94q59 0 116.5 11t111.5 36t95.5 61t66.5 89t25 116q0 30 -6.5 57t-15 48t-26.5 40.5t-32 32.5t-41 27.5t-43 22.5t-49 19t-48.5 15.5t-52 14.5t-48.5 14l-143 43q-289 83 -289 340q0 85 29 155.5t78.5 118.5 t116 81t140.5 48t154 15q116 0 209.5 -24.5t167 -76.5t111.5 -142q33 -78 33 -181q0 -16 -1 -33h-139q-1 185 -96 261.5t-291 76.5q-70 0 -134.5 -17t-119 -50.5t-87 -92t-32.5 -133.5q0 -45 14.5 -81.5t36 -60t57 -43.5t65 -31.5t73.5 -24.5l155 -47q53 -16 86 -27 t79.5 -30.5t75 -38t61 -46.5t50.5 -60t30 -76t12 -95q0 -34 -6 -70.5t-23 -81.5t-43.5 -86t-71.5 -80.5t-102 -68.5t-139.5 -46.5t-180.5 -17.5q-125 0 -227 31t-177 92t-113 160q-33 86 -34 195q0 16 1 34z" />
<glyph unicode="T" d="M141 1343l25 119h1143l-25 -119h-502l-293 -1343h-139l293 1343h-502z" />
<glyph unicode="U" horiz-adv-x="1441" d="M98 389q0 43 13 119l196 954h139l-194 -930q-14 -60 -14 -126v-16q0 -142 102 -220q108 -82 297 -82q195 0 314.5 99.5t158.5 285.5l207 989h139l-209 -999q-103 -494 -629 -494q-79 0 -152.5 14t-141.5 46.5t-118 80.5q-50 46 -80 118q-29 69 -28 155v6z" />
<glyph unicode="V" horiz-adv-x="1214" d="M131 1462h143l187 -1343h4l749 1343h152l-844 -1462h-162z" />
<glyph unicode="W" horiz-adv-x="1857" d="M145 1462h140l75 -1300h5l622 1300h168l100 -1288h5l598 1288h145l-705 -1462h-151l-96 1329h-4l-639 -1329h-154z" />
<glyph unicode="X" horiz-adv-x="1175" d="M-139 0l671 762l-360 700h154l303 -614l530 614h166l-635 -723l381 -739h-147l-326 651l-573 -651h-164z" />
<glyph unicode="Y" horiz-adv-x="1175" d="M135 1462h148l329 -741l613 741h170l-733 -872l-130 -590h-141l133 604z" />
<glyph unicode="Z" horiz-adv-x="1175" d="M-102 0l26 123l1166 1220h-889l26 119h1055l-25 -116l-1169 -1227h975l-27 -119h-1138z" />
<glyph unicode="[" horiz-adv-x="493" d="M-57 -391l399 1884h334l-23 -109h-200l-359 -1667h199l-21 -108h-329z" />
<glyph unicode="\" horiz-adv-x="681" d="M-119 1493h121l842 -1524h-121z" />
<glyph unicode="]" horiz-adv-x="493" d="M-152 -391l23 108h201l358 1667h-199l21 109h330l-400 -1884h-334z" />
<glyph unicode="^" horiz-adv-x="1228" d="M90 487l471 928h107l471 -928h-117l-410 799l-403 -799h-119z" />
<glyph unicode="_" horiz-adv-x="1024" d="M0 -154h1024v-102h-1024v102z" />
<glyph unicode="`" horiz-adv-x="378" d="M137 1493h152l168 -295h-103z" />
<glyph unicode="a" horiz-adv-x="1062" d="M-18 262q0 65 20.5 116.5t53.5 86t82.5 60t98.5 40t111 25.5q64 10 178.5 16t157.5 15q66 16 96.5 61t30.5 145q0 45 -20.5 76.5t-55 47t-70.5 22t-77 6.5q-134 0 -223.5 -57t-108.5 -181h-129q25 173 146 259.5t300 86.5q47 0 93.5 -6.5t97 -23t88.5 -42t63 -68 t25 -95.5q0 -46 -10.5 -106.5t-31.5 -148.5t-24 -101q-15 -75 -30 -145t-22.5 -101t-12 -60t-4.5 -51q0 -43 67 -43q16 0 52 4l-19 -102q-48 -10 -106 -10q-53 0 -82 30.5t-31 83.5q0 22 4 58l-4 4q-55 -91 -155 -143t-212 -52q-153 0 -245 72.5t-92 220.5zM111 268 q0 -95 67 -142.5t168 -47.5q151 0 249 83.5t130 225.5l41 178l-4 4q-38 -48 -221 -58q-9 -1 -13 -1q-158 -12 -222 -28q-195 -50 -195 -214z" />
<glyph unicode="b" horiz-adv-x="1175" d="M-23 0l312 1462h129l-125 -592h4q58 99 153.5 158t211.5 59q194 0 297.5 -121.5t103.5 -318.5q0 -98 -23 -194.5t-70.5 -183.5t-113 -154t-156.5 -106.5t-196 -39.5q-135 0 -231.5 72.5t-122.5 200.5h-5l-51 -242h-117zM199 399q0 -141 74 -231t214 -90q105 0 192.5 53 t141.5 137.5t83.5 184t29.5 198.5q0 153 -75.5 240.5t-227.5 87.5q-82 0 -153.5 -37t-121.5 -98t-86 -137.5t-53.5 -155.5t-17.5 -152z" />
<glyph unicode="c" horiz-adv-x="1062" d="M29 406q0 125 39.5 246t110.5 218t181.5 157t241.5 60q118 0 206 -38q89 -39 141 -121q48 -77 49 -184q0 -8 -1 -17h-129q1 10 1 20q0 102 -66 164q-72 68 -189 68q-90 0 -166 -33.5t-128.5 -89.5t-89.5 -130t-54.5 -155t-17.5 -165q0 -148 75 -238t220 -90 q124 0 214.5 72t133.5 192h129q-120 -373 -494 -373q-193 0 -300 119t-107 318z" />
<glyph unicode="d" horiz-adv-x="1175" d="M29 401q0 97 25.5 195.5t76 186t119 156t161 108.5t195.5 40q279 0 344 -229h4l127 604h129l-313 -1462h-125l47 190h-4q-72 -111 -162 -166t-223 -55q-197 0 -299 116t-102 316zM158 393q0 -142 71.5 -228.5t212.5 -86.5q86 0 161.5 37t129.5 97.5t93 138.5t58 160.5 t19 162.5q0 140 -78 222.5t-217 82.5q-106 0 -194.5 -55t-142.5 -142t-83.5 -188t-29.5 -201z" />
<glyph unicode="e" horiz-adv-x="1062" d="M29 418q0 127 39 246t110 213.5t181 152t241 57.5q188 0 294.5 -112t106.5 -299q0 -103 -10 -182h-827q-6 -37 -6 -82q0 -150 78 -242t229 -92q124 0 216 72t130 190h129q-53 -180 -174.5 -275.5t-306.5 -95.5q-206 0 -318 120t-112 329zM180 602h690q0 15 1 42t1 40 q0 133 -78 214t-210 81q-152 0 -260 -109.5t-144 -267.5z" />
<glyph unicode="f" horiz-adv-x="530" d="M37 0l209 948h-185l25 109h182l33 153q26 125 91.5 188.5t191.5 63.5q83 0 133 -14l-23 -107q-5 1 -34.5 7t-45.5 6q-87 0 -126.5 -34t-59.5 -116l-31 -147h209l-24 -109h-207l-209 -948h-129z" />
<glyph unicode="g" d="M-41 -80h129q1 -65 25.5 -112t67.5 -72.5t93 -37t111 -11.5q48 0 90 10.5t74.5 26.5t61 43t49 53t39 63t30 66.5t23.5 71t18 68t15 66.5t14 58l-4 4q-53 -90 -152 -142t-209 -52q-186 0 -288.5 120t-102.5 310q0 118 37.5 230.5t105.5 203t172 145.5t226 55 q128 0 226.5 -64.5t119.5 -182.5h4l45 217h119l-201 -946q-30 -144 -69.5 -240t-101.5 -164t-149 -98.5t-210 -30.5q-84 0 -154.5 18.5t-128 57.5t-91 107t-34.5 159zM172 463q0 -143 72.5 -237.5t212.5 -94.5q94 0 175.5 48t134 124.5t82.5 169t30 182.5q0 150 -70 237 t-219 87q-77 0 -144.5 -31t-117 -83t-85 -118.5t-53.5 -139.5t-18 -144z" />
<glyph unicode="h" horiz-adv-x="1099" d="M-23 0l316 1462h129l-129 -598h4q58 98 157.5 160.5t213.5 62.5q147 0 233 -69.5t86 -214.5q0 -47 -16 -125l-146 -678h-129l148 682q14 58 14 106q0 98 -63 144.5t-158 46.5q-142 0 -257 -119t-157 -317l-117 -543h-129z" />
<glyph unicode="i" horiz-adv-x="378" d="M-23 0l228 1057h129l-228 -1057h-129zM248 1255l45 207h129l-45 -207h-129z" />
<glyph unicode="j" horiz-adv-x="378" d="M-281 -381l25 107q9 -1 34.5 -5t39.5 -4q95 0 125 107l262 1233h129l-264 -1237q-26 -109 -84.5 -160t-175.5 -51q-17 0 -47.5 4.5t-43.5 5.5zM248 1255l43 207h131l-45 -207h-129z" />
<glyph unicode="k" horiz-adv-x="948" d="M-23 0l312 1462h129l-197 -917l4 -4l619 516h172l-500 -408l320 -649h-142l-280 571l-226 -188l-82 -383h-129z" />
<glyph unicode="l" horiz-adv-x="378" d="M-23 0l316 1462h129l-316 -1462h-129z" />
<glyph unicode="m" horiz-adv-x="1705" d="M-23 0l228 1057h119l-41 -185l4 -4q60 97 159 158t213 61q112 0 179 -57t77 -168h5q65 102 160.5 163.5t209.5 61.5q147 0 220 -75t73 -203q0 -46 -14 -121l-148 -688h-129l150 692q12 56 12 107q0 81 -51.5 130.5t-149.5 49.5q-66 0 -121 -25.5t-95 -68.5t-73 -107.5 t-55 -134t-41 -156.5l-104 -487h-129l147 688q13 57 13 103q0 82 -45 135t-134 53q-136 0 -245 -126t-150 -316l-115 -537h-129z" />
<glyph unicode="n" horiz-adv-x="1099" d="M-23 0l228 1057h119l-37 -193h4q63 99 163 161t214 62q147 0 233 -69.5t86 -214.5q0 -47 -16 -125l-146 -678h-129l148 682q14 58 14 106q0 98 -63 144.5t-158 46.5q-142 0 -257 -119t-157 -317l-117 -543h-129z" />
<glyph unicode="o" d="M29 410q0 131 40 252t112.5 216t186 152t250.5 57q188 0 303 -110.5t115 -302.5q0 -108 -23 -210t-71 -192t-116 -157.5t-164.5 -106.5t-210.5 -39q-201 0 -311.5 119.5t-110.5 321.5zM158 422q0 -159 80 -251.5t237 -92.5q101 0 186 54t137 139t80.5 183t28.5 193 q0 152 -80 242t-231 90q-82 0 -154 -34t-123 -90.5t-88 -129t-55 -150.5t-18 -153z" />
<glyph unicode="p" horiz-adv-x="1175" d="M-94 -391l311 1448h117l-41 -191h4q72 111 162 166t223 55q197 0 299 -116t102 -316q0 -97 -25.5 -195.5t-76 -186t-119 -156t-161 -108.5t-195.5 -40q-133 0 -225 59.5t-113 182.5h-4l-129 -602h-129zM209 383q0 -140 78 -222.5t217 -82.5q106 0 194.5 55t142.5 142 t83.5 188t29.5 201q0 142 -71.5 228.5t-212.5 86.5q-86 0 -161.5 -37t-129.5 -97.5t-93 -138.5t-58 -160.5t-19 -162.5z" />
<glyph unicode="q" horiz-adv-x="1175" d="M45 410q0 98 23 194t70.5 183.5t113 154t156.5 106t196 39.5q131 0 231 -66.5t132 -174.5h4l45 211h119l-312 -1448h-129l125 577h-4q-61 -99 -157 -158t-212 -59q-194 0 -297.5 122t-103.5 319zM174 406q0 -153 75.5 -240.5t227.5 -87.5q82 0 153.5 37t121.5 97.5 t86 137t53.5 155.5t17.5 152q0 141 -74 231.5t-214 90.5q-105 0 -192.5 -53t-141.5 -137.5t-83.5 -184t-29.5 -198.5z" />
<glyph unicode="r" horiz-adv-x="645" d="M-23 0l228 1057h117l-54 -244h4q66 123 158 191q90 67 221 67h4q47 0 70 -2l-29 -129q-12 0 -36 1t-37 1q-84 -1 -153 -33.5t-117 -88t-79.5 -122.5t-48.5 -145l-119 -553h-129z" />
<glyph unicode="s" horiz-adv-x="985" d="M-2 344h129v-6q0 -70 24 -122q25 -54 69 -82.5t95 -42t111 -13.5q62 0 120.5 19.5t102 65.5t43.5 109q0 37 -14.5 67.5t-37 52t-58 41t-68.5 33t-76 29.5q-20 7 -30 11q-52 20 -85 35t-74.5 41.5t-65.5 54.5t-41 70t-17 92q0 59 24.5 108.5t64 82t91.5 55t105 32.5 t106 10q85 0 153 -19t119.5 -58.5t78.5 -105.5q26 -64 26 -150v-6h-129q1 11 1 21q1 101 -63 153q-70 58 -186 57q-47 0 -89.5 -8t-83 -27t-65 -56t-24.5 -89q0 -35 17 -64.5t51.5 -53t68.5 -40t86 -37.5q10 -4 44 -17t48 -18.5t45.5 -19.5t46.5 -23t41.5 -25.5t40 -30.5 t31 -34.5t26 -41t15 -46.5t6.5 -55q0 -85 -37.5 -150t-100.5 -101.5t-136 -54.5t-152 -18q-62 0 -120 13.5t-110.5 43t-90.5 72.5t-58 106q-18 55 -18 121v19z" />
<glyph unicode="t" horiz-adv-x="606" d="M63 948l25 109h191l67 319h129l-67 -319h210l-20 -109h-215l-145 -678q-15 -73 -15 -100q0 -31 17 -52.5t51 -21.5q68 0 151 13l-22 -113q-86 -8 -131 -8q-195 0 -195 151q0 39 15 109l145 700h-191z" />
<glyph unicode="u" horiz-adv-x="1099" d="M41 254q0 47 16 125l146 678h129l-148 -682q-14 -58 -14 -107q0 -97 63 -143.5t158 -46.5q142 0 257 119t157 317l117 543h129l-228 -1057h-118l36 193h-4q-63 -99 -163 -161.5t-214 -62.5q-146 0 -232.5 70t-86.5 215z" />
<glyph unicode="v" horiz-adv-x="948" d="M72 1057h135l125 -912h4l495 912h142l-596 -1057h-139z" />
<glyph unicode="w" horiz-adv-x="1517" d="M61 1057h136l84 -901h4l436 901h151l72 -893h4l449 893h137l-555 -1057h-139l-76 887h-4l-434 -887h-142z" />
<glyph unicode="x" horiz-adv-x="948" d="M-119 0l504 557l-248 500h148l192 -416l365 416h155l-465 -512l281 -545h-147l-226 461l-405 -461h-154z" />
<glyph unicode="y" horiz-adv-x="948" d="M-113 -381l25 105q65 -7 111 -7q96 0 165 115l97 168l-195 1057h135l152 -897h4l487 897h140l-752 -1307q-80 -141 -256 -141q-21 0 -59.5 4.5t-53.5 5.5z" />
<glyph unicode="z" horiz-adv-x="872" d="M-119 0l23 104l817 844h-631l23 109h794l-22 -103l-822 -845h678l-22 -109h-838z" />
<glyph unicode="{" horiz-adv-x="681" d="M119 496l22 108q148 0 217 328l64 305q23 118 85 187t148 69h103l-23 -109h-47q-35 0 -57.5 -12t-46.5 -59.5t-43 -138.5l-60 -289q-13 -63 -37 -118.5t-49.5 -91t-54 -63.5t-46.5 -40.5t-30 -18.5v-4q14 -9 31 -29.5t36 -71.5t19 -114q0 -42 -14 -117l-55 -264 q-27 -135 -27 -146q0 -90 80 -90h53l-22 -108h-82q-63 0 -110.5 47.5t-47.5 126.5q0 34 10 82l64 303q22 112 22 172q0 156 -102 156z" />
<glyph unicode="|" horiz-adv-x="454" d="M174 -438v2048h109v-2048h-109z" />
<glyph unicode="}" horiz-adv-x="681" d="M-125 -391l23 108h47q26 0 44 6.5t37.5 27t35.5 64.5t30 113l60 289q13 63 37 118.5t49.5 91t54 63.5t46.5 40.5t30 18.5v4q-14 9 -31 29.5t-36 71.5t-19 114q0 42 14 117l55 264q27 135 27 145q0 90 -80 90h-53l22 109h82q63 0 110.5 -47.5t47.5 -126.5q0 -34 -10 -82 l-64 -303q-22 -112 -22 -172q0 -156 102 -156l-22 -108q-149 0 -218 -328l-63 -305q-23 -118 -85.5 -187t-148.5 -69h-102z" />
<glyph unicode="~" horiz-adv-x="1228" d="M141 461q92 176 256 176q84 0 236 -66q149 -67 201 -67q55 0 95.5 36.5t84.5 104.5l73 -74q-23 -32 -38.5 -52t-41 -46.5t-49.5 -41t-57 -25.5t-70 -11q-38 0 -80.5 11t-71 23t-73.5 34q-48 22 -73.5 32.5t-67.5 21.5t-78 11q-107 0 -172 -141z" />
<glyph unicode="&#xa1;" horiz-adv-x="569" d="M-4 -391l94 461l172 637h76l-111 -641l-94 -457h-137zM244 840l47 217h174l-49 -217h-172z" />
<glyph unicode="&#xa2;" d="M74 406q0 99 24 196t72 183.5t115 153.5t158.5 106.5t195.5 41.5l39 179h78l-39 -183q154 -18 242.5 -108t82.5 -248h-129q7 106 -55 174.5t-164 77.5l-192 -901q122 1 211.5 73.5t132.5 190.5h129q-120 -373 -494 -373h-4l-45 -209h-80l47 217q-156 23 -240.5 138 t-84.5 291zM203 406q0 -127 56 -212t163 -108l192 893q-101 -10 -181.5 -64.5t-129.5 -136t-74.5 -177t-25.5 -195.5z" />
<glyph unicode="&#xa3;" d="M-8 86q61 49 103 89t87 95.5t68.5 118t23.5 129.5q0 46 -22 154h-178l14 69h143q-53 147 -53 267q0 151 67 262.5t177 167t246 55.5q208 0 332.5 -132.5t105.5 -340.5h-129q11 161 -68 262.5t-233 101.5q-103 0 -184.5 -37.5t-133 -122t-51.5 -206.5q0 -147 53 -277h324 l-12 -69h-293q24 -102 24 -160q0 -36 -9.5 -71.5t-20.5 -62.5t-37.5 -61.5t-41.5 -53t-52 -53t-49.5 -45.5t-53.5 -46l4 -4q107 47 215 47q47 0 164 -41q110 -43 174 -43q73 0 128.5 29t121.5 92l49 -103q-74 -70 -150.5 -98.5t-180.5 -28.5q-60 0 -179 45q-107 39 -192 39 q-68 0 -125 -20t-127 -60z" />
<glyph unicode="&#xa4;" d="M61 279l115 114q-115 134 -115 316q0 178 113 317l-113 113l78 78l113 -113q138 113 317 113q180 0 318 -113l112 113l78 -78l-112 -113q112 -134 112 -317q0 -181 -112 -318l112 -112l-78 -78l-114 114q-132 -114 -316 -114q-183 0 -317 112l-113 -112zM190 709 q0 -157 111 -268t268 -111t268 111t111 268t-111 267.5t-268 110.5t-268 -110.5t-111 -267.5z" />
<glyph unicode="&#xa5;" d="M172 1462h131l279 -747l561 747h153l-575 -747h227l-20 -92h-279l-24 -33l-31 -137h299l-21 -93h-299l-77 -360h-129l79 360h-270l21 93h270l33 151l-6 19h-263l21 92h205z" />
<glyph unicode="&#xa6;" horiz-adv-x="454" d="M174 -182v512h109v-512h-109zM174 842v512h109v-512h-109z" />
<glyph unicode="&#xa7;" d="M20 27h130q-13 -117 58 -192t191 -75q87 0 157.5 49t70.5 130q0 19 -4.5 39t-9.5 36.5t-18 38t-21 35.5t-28.5 37.5t-30 35t-36 37.5t-37 36t-41.5 39.5t-41 39.5q-64 61 -100.5 99.5t-81 95t-65.5 111t-21 110.5q0 123 85 207.5t210 99.5q-53 77 -53 158 q0 135 101.5 217t250.5 82q170 0 264.5 -88t91.5 -270h-129q2 114 -53 181.5t-170 67.5q-40 0 -78 -10t-72.5 -31.5t-55.5 -61t-21 -93.5q0 -49 39.5 -109.5t75 -95.5t120.5 -112q18 -17 27 -25q59 -54 96.5 -93t79 -92t62 -105t20.5 -105q0 -132 -80 -217t-213 -103 q66 -86 66 -176q0 -75 -32.5 -135t-86.5 -95.5t-119.5 -54t-136.5 -18.5q-167 0 -270 106t-91 269zM221 729q0 -104 187 -291q192 -192 227 -229q93 13 156 70.5t63 148.5q0 117 -164 281q-44 44 -136.5 129.5t-117.5 113.5q-75 0 -145 -66t-70 -157z" />
<glyph unicode="&#xa8;" horiz-adv-x="378" d="M76 1231l39 209h131l-41 -209h-129zM401 1231l39 209h131l-41 -209h-129z" />
<glyph unicode="&#xa9;" horiz-adv-x="1638" d="M57 731q0 158 59 299t160.5 242.5t242.5 161t300 59.5t300 -59.5t242.5 -161t160.5 -242.5t59 -299t-59 -299t-160.5 -242.5t-242.5 -161t-300 -59.5t-300 59.5t-242.5 161t-160.5 242.5t-59 299zM176 731q0 -135 49 -255.5t133.5 -208t204.5 -138.5t256 -51t256 51 t204.5 138.5t133.5 208t49 255.5t-49 255.5t-133.5 208t-204.5 138.5t-256 51t-256 -51t-204.5 -138.5t-133.5 -208t-49 -255.5zM393 731q0 207 120 338t325 131q149 0 254 -82t125 -227h-105q-20 94 -91.5 155t-180.5 62q-161 0 -249.5 -105.5t-88.5 -271.5t88.5 -271.5 t249.5 -105.5q109 0 180.5 60.5t91.5 156.5h105q-20 -145 -125 -227t-254 -82q-205 0 -325 131t-120 338z" />
<glyph unicode="&#xaa;" horiz-adv-x="636" d="M49 940q0 52 19.5 90.5t55.5 61.5t74.5 36t90.5 21q41 6 115.5 9t101.5 9q42 9 62 35t20 76q0 48 -41 68t-94 20q-197 0 -222 -139h-88q17 111 97 165t206 54q39 0 77.5 -7t76 -23t61 -47.5t23.5 -74.5q0 -17 -2.5 -39.5t-7 -44.5t-8.5 -39.5t-8.5 -34t-4.5 -18.5 q-8 -34 -22.5 -93.5t-23.5 -98t-9 -47.5q0 -13 7.5 -19t14.5 -7t21 -1q19 0 33 2l-12 -76q-30 -6 -68 -6q-36 0 -56 19.5t-20 52.5q0 14 6 35h-6q-34 -60 -98.5 -92.5t-138.5 -32.5q-232 0 -232 186zM145 940q0 -52 43.5 -79t106.5 -27q99 0 162 49t84 135l26 100l-2 -2 l-4 4q-6 -7 -17 -13t-21.5 -9.5t-28 -6t-27.5 -4t-29.5 -3t-23.5 -1.5q-7 -1 -35.5 -3.5t-40.5 -4t-38.5 -5t-40 -8t-35 -12t-33 -17.5t-24 -23t-17.5 -31t-5 -39z" />
<glyph unicode="&#xab;" horiz-adv-x="872" d="M102 526l31 131l326 232l-31 -139l-238 -172l154 -209l-25 -129zM430 526l31 131l325 232l-30 -139l-238 -172l154 -209l-25 -129z" />
<glyph unicode="&#xac;" horiz-adv-x="1228" d="M100 666v108h1030v-547h-108v439h-922z" />
<glyph unicode="&#xad;" horiz-adv-x="757" d="M78 504l24 119h514l-24 -119h-514z" />
<glyph unicode="&#xae;" horiz-adv-x="1638" d="M57 731q0 158 59 299t160.5 242.5t242.5 161t300 59.5t300 -59.5t242.5 -161t160.5 -242.5t59 -299t-59 -299t-160.5 -242.5t-242.5 -161t-300 -59.5t-300 59.5t-242.5 161t-160.5 242.5t-59 299zM176 731q0 -135 49 -255.5t133.5 -208t204.5 -138.5t256 -51t256 51 t204.5 138.5t133.5 208t49 255.5t-49 255.5t-133.5 208t-204.5 138.5t-256 51t-256 -51t-204.5 -138.5t-133.5 -208t-49 -255.5zM543 291v880h338q286 0 286 -243q0 -110 -61.5 -169.5t-159.5 -76.5l262 -391h-127l-247 391h-183v-391h-108zM651 774h144q42 0 67 1t60 5.5 t56 14.5t41.5 26.5t30 43.5t9.5 63q0 151 -209 151h-199v-305z" />
<glyph unicode="&#xaf;" horiz-adv-x="378" d="M57 1284l17 92h524l-16 -92h-525z" />
<glyph unicode="&#xb0;" horiz-adv-x="819" d="M240 1151q0 123 86 209t209 86t208.5 -86t85.5 -209t-85.5 -209t-208.5 -86t-209 86t-86 209zM319 1151q0 -89 63.5 -152t152.5 -63t152 63t63 152t-63 152t-152 63t-152.5 -63t-63.5 -152z" />
<glyph unicode="&#xb1;" horiz-adv-x="1228" d="M100 0v109h1030v-109h-1030zM102 553v109h459v368h109v-368h460v-109h-460v-369h-109v369h-459z" />
<glyph unicode="&#xb2;" horiz-adv-x="681" d="M23 561q3 55 23.5 103t47.5 82t73 68t82.5 55t92.5 49q143 73 191 109q111 83 112 190q0 71 -54.5 110t-133.5 39q-99 0 -160 -65t-66 -160h-96q6 136 96 220.5t232 84.5q115 0 193 -60.5t85 -171.5q0 -48 -15.5 -90t-38 -72t-61.5 -60.5t-72 -50.5t-83 -46 q-23 -12 -71 -36.5t-75.5 -39t-66.5 -38t-61 -43t-40 -45.5t-22 -52h504l-14 -80h-602z" />
<glyph unicode="&#xb3;" horiz-adv-x="681" d="M49 846h84q-13 -223 201 -223q105 0 178.5 58.5t73.5 147.5q0 77 -58 112.5t-149 35.5h-45l14 80h53q242 0 242 164q0 67 -52.5 106t-127.5 39q-97 0 -156 -53.5t-74 -145.5h-83q53 279 317 279q119 0 195.5 -57t76.5 -166q0 -81 -54 -138t-140 -69v-4q66 -15 101.5 -63 t35.5 -115q0 -135 -100.5 -213t-251.5 -78q-155 0 -219.5 77.5t-61.5 225.5z" />
<glyph unicode="&#xb4;" horiz-adv-x="378" d="M172 1198l238 295h165l-294 -295h-109z" />
<glyph unicode="&#xb5;" horiz-adv-x="1099" d="M-104 -391l307 1448h129l-148 -682q-14 -58 -14 -107q0 -97 63 -143.5t158 -46.5q142 0 257 119t157 317l117 543h129l-228 -1057h-118l36 193h-4q-63 -99 -163 -161.5t-214 -62.5q-169 0 -247 84l-93 -444h-124z" />
<glyph unicode="&#xb6;" horiz-adv-x="1228" d="M152 1061q40 193 181 297t357 104h445l-379 -1824h-109l361 1734h-260l-361 -1734h-108l215 1034q-178 0 -277 114.5t-65 274.5z" />
<glyph unicode="&#xb7;" horiz-adv-x="569" d="M145 639q0 47 34.5 81t80.5 34t80.5 -34.5t34.5 -80.5q0 -43 -34.5 -79t-78.5 -36q-47 0 -82 34.5t-35 80.5z" />
<glyph unicode="&#xb8;" horiz-adv-x="378" d="M-174 -373l29 60q49 -20 80.5 -27.5t78.5 -7.5q49 0 82 19.5t33 64.5q0 42 -32 63t-79 21q-39 0 -79 -19l-33 37l149 174h76l-119 -127l4 -4q36 8 74 8q66 0 109 -35.5t43 -105.5q0 -80 -67 -123t-152 -43q-102 0 -197 45z" />
<glyph unicode="&#xb9;" horiz-adv-x="681" d="M221 1194l19 80q205 26 292 153h78l-198 -866h-99l162 703q-102 -60 -254 -70z" />
<glyph unicode="&#xba;" horiz-adv-x="684" d="M74 1028q0 83 26 158t74.5 133t124.5 92.5t168 34.5q128 0 203 -67.5t75 -190.5q0 -116 -41.5 -212.5t-131.5 -159t-216 -62.5q-136 0 -209 73t-73 201zM170 1036q0 -92 52 -147t151 -55q64 0 118.5 32.5t87.5 83t51.5 108.5t18.5 113q0 88 -51.5 141.5t-146.5 53.5 q-84 0 -150.5 -53.5t-98.5 -127.5t-32 -149z" />
<glyph unicode="&#xbb;" horiz-adv-x="872" d="M31 240l30 139l238 172l-154 209l25 129l217 -287l-31 -131zM358 240l31 139l238 172l-154 209l25 129l217 -287l-31 -131z" />
<glyph unicode="&#xbc;" horiz-adv-x="1708" d="M221 1194l19 80q205 26 292 153h78l-198 -866h-99l162 703q-102 -60 -254 -70zM315 -70l910 1555h108l-909 -1555h-109zM911 203l15 88l563 569h92l-133 -577h129l-14 -80h-133l-48 -203h-96l47 203h-422zM1028 283h322l100 430l-4 4z" />
<glyph unicode="&#xbd;" horiz-adv-x="1708" d="M170 1194l18 80q206 26 293 153h78l-199 -866h-98l162 703q-102 -60 -254 -70zM266 -70l910 1555h108l-909 -1555h-109zM918 0q3 55 23.5 103t47.5 81.5t73 67.5t82.5 55t92.5 49q143 73 191 109q112 82 112 190q0 71 -54.5 110.5t-133.5 39.5q-99 0 -160 -65t-66 -160 h-96q6 136 96 220.5t232 84.5q115 0 193 -60.5t85 -171.5q0 -48 -15.5 -90t-38 -72t-61.5 -60.5t-72 -50.5t-83 -46q-23 -12 -71 -36.5t-75.5 -39t-66.5 -38t-61 -43t-40 -45.5t-22 -52h504l-14 -80h-602z" />
<glyph unicode="&#xbe;" horiz-adv-x="1708" d="M49 846h84q-13 -223 201 -223q105 0 178.5 58.5t73.5 147.5q0 77 -58 112.5t-149 35.5h-45l14 80h53q242 0 242 164q0 67 -52.5 106t-127.5 39q-97 0 -156 -53.5t-74 -145.5h-83q53 279 317 279q119 0 195.5 -57t76.5 -166q0 -81 -54 -138t-140 -69v-4q66 -15 101.5 -63 t35.5 -115q0 -135 -100.5 -213t-251.5 -78q-155 0 -219.5 77.5t-61.5 225.5zM387 -70l909 1555h109l-909 -1555h-109zM911 203l15 88l563 569h92l-133 -577h129l-14 -80h-133l-48 -203h-96l47 203h-422zM1028 283h322l100 430l-4 4z" />
<glyph unicode="&#xbf;" horiz-adv-x="1099" d="M-39 -78q0 65 19 123t46.5 100.5t75 87.5t87 74.5t100.5 69.5q101 63 142 129.5t67 191.5h129q-8 -59 -20 -105t-34.5 -85.5t-41 -65.5t-57.5 -60.5t-66 -54.5t-84 -61q-234 -155 -234 -325q0 -122 75 -188t200 -66q156 0 248.5 104.5t105.5 269.5h129 q-9 -223 -139.5 -353t-350.5 -130q-79 0 -149.5 22t-126.5 63.5t-88.5 108.5t-32.5 150zM504 840l47 217h174l-49 -217h-172z" />
<glyph unicode="&#xc0;" horiz-adv-x="1290" d="M-154 0l895 1462h152l266 -1462h-145l-74 455h-668l-270 -455h-156zM342 573h578l-125 770h-4zM594 1858h151l168 -295h-102z" />
<glyph unicode="&#xc1;" horiz-adv-x="1290" d="M-154 0l895 1462h152l266 -1462h-145l-74 455h-668l-270 -455h-156zM342 573h578l-125 770h-4zM666 1563l237 295h166l-295 -295h-108z" />
<glyph unicode="&#xc2;" horiz-adv-x="1290" d="M-154 0l895 1462h152l266 -1462h-145l-74 455h-668l-270 -455h-156zM342 573h578l-125 770h-4zM487 1563l279 295h129l176 -295h-117l-135 217l-207 -217h-125z" />
<glyph unicode="&#xc3;" horiz-adv-x="1290" d="M-154 0l895 1462h152l266 -1462h-145l-74 455h-668l-270 -455h-156zM342 573h578l-125 770h-4zM485 1593q26 92 64 142q52 65 127 65q55 0 143 -53q77 -48 110 -56q18 -5 34 -5q29 0 56 38.5t36 75.5h82q-19 -85 -60 -137q-53 -70 -123 -70q-53 0 -155 56l-20 12 t-21 12.5t-19 10.5t-20 10t-17 7t-18 5.5t-16 1.5q-35 0 -62.5 -37t-36.5 -78h-84z" />
<glyph unicode="&#xc4;" horiz-adv-x="1290" d="M-154 0l895 1462h152l266 -1462h-145l-74 455h-668l-270 -455h-156zM342 573h578l-125 770h-4zM569 1595l39 209h131l-41 -209h-129zM895 1595l39 209h131l-41 -209h-129z" />
<glyph unicode="&#xc5;" horiz-adv-x="1290" d="M-154 0l895 1462h152l266 -1462h-145l-74 455h-668l-270 -455h-156zM342 573h578l-125 770h-4zM616 1745q0 82 60.5 142.5t142.5 60.5q83 0 144 -60t61 -143q0 -85 -60 -145t-145 -60q-83 0 -143 61t-60 144zM686 1745q0 -54 40 -94.5t93 -40.5q54 0 94.5 40.5t40.5 94.5 q0 53 -40.5 93t-94.5 40q-53 0 -93 -40t-40 -93z" />
<glyph unicode="&#xc6;" horiz-adv-x="1820" d="M-166 0l1094 1462h1020l-27 -119h-731l-115 -528h686l-26 -119h-684l-125 -577h755l-26 -119h-895l100 463h-522l-340 -463h-164zM426 582h459l166 761h-62z" />
<glyph unicode="&#xc7;" horiz-adv-x="1441" d="M70 592q0 176 54.5 338t153.5 287.5t251.5 200.5t334.5 75q156 0 276.5 -54.5t193.5 -167.5t75 -272h-139q-3 181 -112.5 278t-295.5 97q-128 0 -236.5 -44.5t-184 -120.5t-129 -178t-78.5 -216t-25 -235q0 -226 128.5 -359t354.5 -133q175 0 308.5 110.5t187.5 301.5 h139q-26 -115 -79.5 -209.5t-133.5 -167.5t-193.5 -113.5t-250.5 -40.5q-31 0 -47 2l-80 -86l4 -4q36 8 74 8q66 0 108.5 -35.5t42.5 -105.5q0 -80 -67 -123t-152 -43q-102 0 -197 45l29 60q49 -20 81 -27.5t79 -7.5q48 0 81 19.5t33 64.5q0 42 -31.5 63t-78.5 21 q-40 0 -80 -19l-33 37l123 144q-232 30 -360.5 194.5t-128.5 415.5z" />
<glyph unicode="&#xc8;" horiz-adv-x="1175" d="M10 0l312 1462h981l-27 -119h-840l-112 -528h784l-27 -119h-782l-123 -577h860l-26 -119h-1000zM629 1858h151l168 -295h-102z" />
<glyph unicode="&#xc9;" horiz-adv-x="1175" d="M10 0l312 1462h981l-27 -119h-840l-112 -528h784l-27 -119h-782l-123 -577h860l-26 -119h-1000zM664 1563l237 295h166l-295 -295h-108z" />
<glyph unicode="&#xca;" horiz-adv-x="1175" d="M10 0l312 1462h981l-27 -119h-840l-112 -528h784l-27 -119h-782l-123 -577h860l-26 -119h-1000zM485 1563l279 295h129l176 -295h-117l-135 217l-207 -217h-125z" />
<glyph unicode="&#xcb;" horiz-adv-x="1175" d="M10 0l312 1462h981l-27 -119h-840l-112 -528h784l-27 -119h-782l-123 -577h860l-26 -119h-1000zM567 1595l39 209h131l-41 -209h-129zM893 1595l39 209h131l-41 -209h-129z" />
<glyph unicode="&#xcc;" horiz-adv-x="454" d="M10 0l309 1462h140l-309 -1462h-140zM213 1858h152l167 -295h-102z" />
<glyph unicode="&#xcd;" horiz-adv-x="454" d="M10 0l309 1462h140l-309 -1462h-140zM248 1563l237 295h166l-295 -295h-108z" />
<glyph unicode="&#xce;" horiz-adv-x="454" d="M10 0l309 1462h140l-309 -1462h-140zM70 1563l278 295h129l176 -295h-116l-136 217l-206 -217h-125z" />
<glyph unicode="&#xcf;" horiz-adv-x="454" d="M10 0l309 1462h140l-309 -1462h-140zM152 1595l38 209h132l-41 -209h-129zM477 1595l39 209h131l-41 -209h-129z" />
<glyph unicode="&#xd0;" horiz-adv-x="1402" d="M4 713l21 92h161l142 657h471q154 0 263.5 -41t173 -120.5t92 -183t28.5 -240.5q0 -139 -32.5 -268t-99 -240t-160.5 -193t-225 -129t-284 -47h-545l156 713h-162zM176 119h352q141 -1 257.5 41.5t195.5 116t133 174.5t78.5 214t24.5 238q0 440 -441 440h-334l-116 -538 h436l-21 -92h-436z" />
<glyph unicode="&#xd1;" horiz-adv-x="1441" d="M0 0l315 1462h158l584 -1306h4l270 1306h135l-319 -1462h-154l-583 1307h-4l-273 -1307h-133zM598 1593q26 92 64 142q52 65 126 65q56 0 144 -53q3 -2 15.5 -10t16 -10t15 -8.5t16.5 -9t15.5 -7.5t16.5 -7t15 -4.5t17 -3.5t16 -1q29 0 56 38.5t36 75.5h82 q-19 -87 -59 -137q-53 -70 -123 -70q-54 0 -156 56l-20 12t-21 12.5t-19 10.5t-20 10t-17 7t-18 5.5t-16 1.5q-35 0 -62 -36.5t-36 -78.5h-84z" />
<glyph unicode="&#xd2;" horiz-adv-x="1517" d="M70 592q0 176 54.5 338t153.5 287.5t251.5 200.5t334.5 75q278 0 442 -167t164 -445q0 -144 -33 -278t-100.5 -249t-161.5 -201t-224 -135t-281 -49q-281 0 -440.5 170.5t-159.5 452.5zM209 580q0 -226 128.5 -359t354.5 -133q143 0 266 67.5t203 176t125 243t45 271.5 q0 116 -28.5 211t-85 166.5t-147 111t-208.5 39.5q-128 0 -236.5 -44.5t-184 -120.5t-129 -178t-78.5 -216t-25 -235zM707 1858h151l168 -295h-102z" />
<glyph unicode="&#xd3;" horiz-adv-x="1517" d="M70 592q0 176 54.5 338t153.5 287.5t251.5 200.5t334.5 75q278 0 442 -167t164 -445q0 -144 -33 -278t-100.5 -249t-161.5 -201t-224 -135t-281 -49q-281 0 -440.5 170.5t-159.5 452.5zM209 580q0 -226 128.5 -359t354.5 -133q143 0 266 67.5t203 176t125 243t45 271.5 q0 116 -28.5 211t-85 166.5t-147 111t-208.5 39.5q-128 0 -236.5 -44.5t-184 -120.5t-129 -178t-78.5 -216t-25 -235zM741 1563l238 295h166l-295 -295h-109z" />
<glyph unicode="&#xd4;" horiz-adv-x="1517" d="M70 592q0 176 54.5 338t153.5 287.5t251.5 200.5t334.5 75q278 0 442 -167t164 -445q0 -144 -33 -278t-100.5 -249t-161.5 -201t-224 -135t-281 -49q-281 0 -440.5 170.5t-159.5 452.5zM209 580q0 -226 128.5 -359t354.5 -133q143 0 266 67.5t203 176t125 243t45 271.5 q0 116 -28.5 211t-85 166.5t-147 111t-208.5 39.5q-128 0 -236.5 -44.5t-184 -120.5t-129 -178t-78.5 -216t-25 -235zM563 1563l279 295h129l176 -295h-117l-135 217l-207 -217h-125z" />
<glyph unicode="&#xd5;" horiz-adv-x="1517" d="M70 592q0 176 54.5 338t153.5 287.5t251.5 200.5t334.5 75q278 0 442 -167t164 -445q0 -144 -33 -278t-100.5 -249t-161.5 -201t-224 -135t-281 -49q-281 0 -440.5 170.5t-159.5 452.5zM209 580q0 -226 128.5 -359t354.5 -133q143 0 266 67.5t203 176t125 243t45 271.5 q0 116 -28.5 211t-85 166.5t-147 111t-208.5 39.5q-128 0 -236.5 -44.5t-184 -120.5t-129 -178t-78.5 -216t-25 -235zM561 1593q26 92 64 142q52 65 127 65q55 0 143 -53q3 -2 15.5 -10t16 -10t15 -8.5t16.5 -9t15.5 -7.5t16.5 -7t15 -4.5t17 -3.5t16 -1q29 0 56 38.5 t36 75.5h82q-19 -87 -59 -137q-53 -70 -123 -70q-54 0 -156 56l-20 12t-21 12.5t-19 10.5t-20 10t-17 7t-18 5.5t-16 1.5q-35 0 -62 -36.5t-36 -78.5h-84z" />
<glyph unicode="&#xd6;" horiz-adv-x="1517" d="M70 592q0 176 54.5 338t153.5 287.5t251.5 200.5t334.5 75q278 0 442 -167t164 -445q0 -144 -33 -278t-100.5 -249t-161.5 -201t-224 -135t-281 -49q-281 0 -440.5 170.5t-159.5 452.5zM209 580q0 -226 128.5 -359t354.5 -133q143 0 266 67.5t203 176t125 243t45 271.5 q0 116 -28.5 211t-85 166.5t-147 111t-208.5 39.5q-128 0 -236.5 -44.5t-184 -120.5t-129 -178t-78.5 -216t-25 -235zM645 1595l39 209h131l-41 -209h-129zM971 1595l39 209h131l-41 -209h-129z" />
<glyph unicode="&#xd7;" horiz-adv-x="1228" d="M152 127l385 387l-385 387l75 76l387 -387l387 387l76 -76l-387 -387l387 -387l-76 -76l-387 385l-387 -385z" />
<glyph unicode="&#xd8;" horiz-adv-x="1517" d="M10 0l180 186q-120 156 -120 406q0 176 54.5 338t153.5 287.5t251.5 200.5t334.5 75q263 0 428 -156l172 181l52 -60l-170 -176q124 -158 124 -401q0 -144 -33 -278t-100.5 -249t-161.5 -201t-224 -135t-281 -49q-271 0 -430 162l-181 -186zM209 580q0 -177 78 -293 l913 954q-123 133 -338 133q-128 0 -236.5 -44.5t-184 -120.5t-129 -178t-78.5 -216t-25 -235zM334 229q131 -141 358 -141q143 0 266 67.5t203 176t125 243t45 271.5q0 201 -84 334z" />
<glyph unicode="&#xd9;" horiz-adv-x="1441" d="M98 389q0 43 13 119l196 954h139l-194 -930q-14 -60 -14 -126q-6 -155 102.5 -236.5t296.5 -81.5q195 0 314.5 99.5t158.5 285.5l207 989h139l-209 -999q-103 -494 -629 -494q-79 0 -152.5 14t-141.5 46.5t-118 80t-79.5 119t-28.5 160.5zM670 1858h151l168 -295h-102z " />
<glyph unicode="&#xda;" horiz-adv-x="1441" d="M98 389q0 43 13 119l196 954h139l-194 -930q-14 -60 -14 -126q-6 -155 102.5 -236.5t296.5 -81.5q195 0 314.5 99.5t158.5 285.5l207 989h139l-209 -999q-103 -494 -629 -494q-79 0 -152.5 14t-141.5 46.5t-118 80t-79.5 119t-28.5 160.5zM778 1563l238 295h166 l-295 -295h-109z" />
<glyph unicode="&#xdb;" horiz-adv-x="1441" d="M98 389q0 43 13 119l196 954h139l-194 -930q-14 -60 -14 -126q-6 -155 102.5 -236.5t296.5 -81.5q195 0 314.5 99.5t158.5 285.5l207 989h139l-209 -999q-103 -494 -629 -494q-79 0 -152.5 14t-141.5 46.5t-118 80t-79.5 119t-28.5 160.5zM600 1563l279 295h129l176 -295 h-117l-135 217l-207 -217h-125z" />
<glyph unicode="&#xdc;" horiz-adv-x="1441" d="M98 389q0 43 13 119l196 954h139l-194 -930q-14 -60 -14 -126q-6 -155 102.5 -236.5t296.5 -81.5q195 0 314.5 99.5t158.5 285.5l207 989h139l-209 -999q-103 -494 -629 -494q-79 0 -152.5 14t-141.5 46.5t-118 80t-79.5 119t-28.5 160.5zM682 1595l39 209h131l-41 -209 h-129zM1008 1595l39 209h131l-41 -209h-129z" />
<glyph unicode="&#xdd;" horiz-adv-x="1175" d="M135 1462h148l329 -741l613 741h170l-733 -872l-130 -590h-141l133 604zM571 1563l238 295h166l-295 -295h-109z" />
<glyph unicode="&#xde;" horiz-adv-x="1290" d="M10 0l316 1462h139l-53 -239h450q169 0 279 -98t110 -263q0 -223 -139 -349t-364 -126h-517l-81 -387h-140zM258 506h494q156 0 258 90.5t102 245.5q0 139 -77.5 200.5t-219.5 61.5h-428z" />
<glyph unicode="&#xdf;" horiz-adv-x="1062" d="M-23 0l242 1116q80 377 432 377q161 0 261 -78.5t100 -238.5q0 -137 -90 -238.5t-224 -120.5v-4q115 -25 178.5 -103.5t63.5 -197.5q0 -140 -66.5 -260.5t-184.5 -192t-259 -71.5q-90 0 -135 8l22 106q31 -6 93 -6q164 0 282.5 114.5t118.5 278.5q0 79 -27 133t-78 82 t-109 39t-136 11l24 108q69 -2 137 15t127.5 51.5t96.5 96.5t37 140q0 101 -63 160t-165 59q-139 0 -209.5 -75.5t-103.5 -225.5l-236 -1083h-129z" />
<glyph unicode="&#xe0;" horiz-adv-x="1062" d="M-18 262q0 65 20.5 116.5t53.5 86t82.5 60t98.5 40t111 25.5q64 10 178.5 15.5t157.5 15.5q66 16 96.5 61t30.5 145q0 45 -20.5 76.5t-55 47t-70.5 22t-77 6.5q-134 0 -223.5 -57t-108.5 -181h-129q25 173 146 259.5t300 86.5q47 0 93.5 -6.5t97 -23t88.5 -42t63 -68 t25 -95.5q0 -46 -10.5 -106.5t-31.5 -148.5t-24 -101q-15 -75 -30 -145t-22.5 -101t-12 -60t-4.5 -51q0 -43 67 -43q16 0 52 4l-19 -102q-48 -10 -106 -10q-53 0 -82 30.5t-31 83.5q0 22 4 58l-4 4q-55 -91 -155 -143t-212 -52q-153 0 -245 72.5t-92 220.5zM111 268 q0 -95 67 -142.5t168 -47.5q151 0 249 83.5t130 225.5l41 178l-4 4q-38 -48 -221 -58q-9 -1 -13 -1q-158 -12 -222 -28q-195 -50 -195 -214zM418 1493h151l168 -295h-102z" />
<glyph unicode="&#xe1;" horiz-adv-x="1062" d="M-18 262q0 65 20.5 116.5t53.5 86t82.5 60t98.5 40t111 25.5q64 10 178.5 15.5t157.5 15.5q66 16 96.5 61t30.5 145q0 45 -20.5 76.5t-55 47t-70.5 22t-77 6.5q-134 0 -223.5 -57t-108.5 -181h-129q25 173 146 259.5t300 86.5q47 0 93.5 -6.5t97 -23t88.5 -42t63 -68 t25 -95.5q0 -46 -10.5 -106.5t-31.5 -148.5t-24 -101q-15 -75 -30 -145t-22.5 -101t-12 -60t-4.5 -51q0 -43 67 -43q16 0 52 4l-19 -102q-48 -10 -106 -10q-53 0 -82 30.5t-31 83.5q0 22 4 58l-4 4q-55 -91 -155 -143t-212 -52q-153 0 -245 72.5t-92 220.5zM111 268 q0 -95 67 -142.5t168 -47.5q151 0 249 83.5t130 225.5l41 178l-4 4q-38 -48 -221 -58q-9 -1 -13 -1q-158 -12 -222 -28q-195 -50 -195 -214zM514 1198l238 295h166l-295 -295h-109z" />
<glyph unicode="&#xe2;" horiz-adv-x="1062" d="M-18 262q0 65 20.5 116.5t53.5 86t82.5 60t98.5 40t111 25.5q64 10 178.5 15.5t157.5 15.5q66 16 96.5 61t30.5 145q0 45 -20.5 76.5t-55 47t-70.5 22t-77 6.5q-134 0 -223.5 -57t-108.5 -181h-129q25 173 146 259.5t300 86.5q47 0 93.5 -6.5t97 -23t88.5 -42t63 -68 t25 -95.5q0 -46 -10.5 -106.5t-31.5 -148.5t-24 -101q-15 -75 -30 -145t-22.5 -101t-12 -60t-4.5 -51q0 -43 67 -43q16 0 52 4l-19 -102q-48 -10 -106 -10q-53 0 -82 30.5t-31 83.5q0 22 4 58l-4 4q-55 -91 -155 -143t-212 -52q-153 0 -245 72.5t-92 220.5zM111 268 q0 -95 67 -142.5t168 -47.5q151 0 249 83.5t130 225.5l41 178l-4 4q-38 -48 -221 -58q-9 -1 -13 -1q-158 -12 -222 -28q-195 -50 -195 -214zM336 1198l278 295h129l177 -295h-117l-135 217l-207 -217h-125z" />
<glyph unicode="&#xe3;" horiz-adv-x="1062" d="M-18 262q0 65 20.5 116.5t53.5 86t82.5 60t98.5 40t111 25.5q64 10 178.5 15.5t157.5 15.5q66 16 96.5 61t30.5 145q0 45 -20.5 76.5t-55 47t-70.5 22t-77 6.5q-134 0 -223.5 -57t-108.5 -181h-129q25 173 146 259.5t300 86.5q47 0 93.5 -6.5t97 -23t88.5 -42t63 -68 t25 -95.5q0 -46 -10.5 -106.5t-31.5 -148.5t-24 -101q-15 -75 -30 -145t-22.5 -101t-12 -60t-4.5 -51q0 -43 67 -43q16 0 52 4l-19 -102q-48 -10 -106 -10q-53 0 -82 30.5t-31 83.5q0 22 4 58l-4 4q-55 -91 -155 -143t-212 -52q-153 0 -245 72.5t-92 220.5zM111 268 q0 -95 67 -142.5t168 -47.5q151 0 249 83.5t130 225.5l41 178l-4 4q-38 -48 -221 -58q-9 -1 -13 -1q-158 -12 -222 -28q-195 -50 -195 -214zM334 1229q26 93 63 141q52 66 127 66q54 0 144 -54q3 -2 15.5 -10t16 -10t15 -8.5t16.5 -9t15.5 -7.5t16.5 -7t15 -4.5t17 -3.5 t16 -1q29 0 56 38.5t36 76.5h82q-20 -89 -59 -138q-52 -69 -123 -69q-56 0 -156 55l-20 12t-21 12.5t-19 10.5t-20 10t-17 7t-18 5.5t-16 1.5q-35 0 -62 -36.5t-36 -77.5h-84z" />
<glyph unicode="&#xe4;" horiz-adv-x="1062" d="M-18 262q0 65 20.5 116.5t53.5 86t82.5 60t98.5 40t111 25.5q64 10 178.5 15.5t157.5 15.5q66 16 96.5 61t30.5 145q0 45 -20.5 76.5t-55 47t-70.5 22t-77 6.5q-134 0 -223.5 -57t-108.5 -181h-129q25 173 146 259.5t300 86.5q47 0 93.5 -6.5t97 -23t88.5 -42t63 -68 t25 -95.5q0 -46 -10.5 -106.5t-31.5 -148.5t-24 -101q-15 -75 -30 -145t-22.5 -101t-12 -60t-4.5 -51q0 -43 67 -43q16 0 52 4l-19 -102q-48 -10 -106 -10q-53 0 -82 30.5t-31 83.5q0 22 4 58l-4 4q-55 -91 -155 -143t-212 -52q-153 0 -245 72.5t-92 220.5zM111 268 q0 -95 67 -142.5t168 -47.5q151 0 249 83.5t130 225.5l41 178l-4 4q-38 -48 -221 -58q-9 -1 -13 -1q-158 -12 -222 -28q-195 -50 -195 -214zM418 1231l39 209h131l-41 -209h-129zM743 1231l39 209h131l-41 -209h-129z" />
<glyph unicode="&#xe5;" horiz-adv-x="1062" d="M-18 262q0 65 20.5 116.5t53.5 86t82.5 60t98.5 40t111 25.5q64 10 178.5 15.5t157.5 15.5q66 16 96.5 61t30.5 145q0 45 -20.5 76.5t-55 47t-70.5 22t-77 6.5q-134 0 -223.5 -57t-108.5 -181h-129q25 173 146 259.5t300 86.5q47 0 93.5 -6.5t97 -23t88.5 -42t63 -68 t25 -95.5q0 -46 -10.5 -106.5t-31.5 -148.5t-24 -101q-15 -75 -30 -145t-22.5 -101t-12 -60t-4.5 -51q0 -43 67 -43q16 0 52 4l-19 -102q-48 -10 -106 -10q-53 0 -82 30.5t-31 83.5q0 22 4 58l-4 4q-55 -91 -155 -143t-212 -52q-153 0 -245 72.5t-92 220.5zM111 268 q0 -95 67 -142.5t168 -47.5q151 0 249 83.5t130 225.5l41 178l-4 4q-38 -48 -221 -58q-9 -1 -13 -1q-158 -12 -222 -28q-195 -50 -195 -214zM465 1380q0 82 60.5 142.5t142.5 60.5q83 0 143.5 -60t60.5 -143q0 -85 -59.5 -144.5t-144.5 -59.5q-83 0 -143 60.5t-60 143.5z M535 1380q0 -54 40 -94.5t93 -40.5q54 0 94.5 40.5t40.5 94.5q0 53 -40.5 93t-94.5 40q-52 0 -92.5 -40.5t-40.5 -92.5z" />
<glyph unicode="&#xe6;" horiz-adv-x="1744" d="M-18 262q0 65 20.5 116.5t53.5 86t82.5 60t98.5 40t111 25.5q64 10 178.5 15.5t157.5 15.5q66 16 96.5 61t30.5 145q0 45 -20.5 76.5t-55 47t-70.5 22t-77 6.5q-134 0 -223.5 -57t-108.5 -181h-129q25 173 146 259.5t300 86.5q54 0 103.5 -9.5t100.5 -31.5t88 -66.5 t50 -107.5q60 105 159 160t220 55q187 0 287 -117t100 -313q0 -71 -20 -163h-789q-16 -82 -16 -138q0 -128 80.5 -203t206.5 -75q129 0 223.5 70t126.5 192h129q-62 -188 -184.5 -279.5t-321.5 -91.5q-94 0 -168.5 29t-125.5 93.5t-62 158.5h-4q-50 -140 -162.5 -210.5 t-274.5 -70.5q-153 0 -245 72.5t-92 220.5zM111 268q0 -95 67 -142.5t168 -47.5q151 0 249 83.5t130 225.5l41 178l-4 4q-38 -48 -221 -58q-9 -1 -13 -1q-158 -12 -222 -28q-195 -50 -195 -214zM891 602h657q4 33 4 90q0 128 -71.5 207.5t-198.5 79.5q-158 0 -257 -104.5 t-134 -272.5z" />
<glyph unicode="&#xe7;" horiz-adv-x="1062" d="M29 406q0 125 39.5 246t110.5 218t181.5 157t241.5 60q118 0 206.5 -38t140.5 -120.5t48 -201.5h-129q7 116 -65 184t-189 68q-90 0 -166 -33.5t-128.5 -89.5t-89.5 -130t-54.5 -155t-17.5 -165q0 -148 75 -238t220 -90q124 0 214.5 72t133.5 192h129 q-120 -373 -494 -373h-4l-80 -84l4 -4q36 8 74 8q66 0 109 -35.5t43 -105.5q0 -54 -35 -93.5t-83.5 -56t-101.5 -16.5q-101 0 -196 45l29 60q49 -20 80.5 -27.5t78.5 -7.5q49 0 82 19.5t33 64.5q0 42 -32 63t-79 21q-39 0 -79 -19l-33 37l119 137q-161 21 -248.5 136.5 t-87.5 294.5z" />
<glyph unicode="&#xe8;" horiz-adv-x="1062" d="M29 418q0 127 39 246t110 213.5t181 152t241 57.5q188 0 294.5 -112t106.5 -299q0 -103 -10 -182h-827q-6 -37 -6 -82q0 -150 78 -242t229 -92q124 0 216 72t130 190h129q-53 -180 -174.5 -275.5t-306.5 -95.5q-206 0 -318 120t-112 329zM180 602h690q0 15 1 42t1 40 q0 133 -78 214t-210 81q-152 0 -260 -109.5t-144 -267.5zM418 1493h151l168 -295h-102z" />
<glyph unicode="&#xe9;" horiz-adv-x="1062" d="M29 418q0 127 39 246t110 213.5t181 152t241 57.5q188 0 294.5 -112t106.5 -299q0 -103 -10 -182h-827q-6 -37 -6 -82q0 -150 78 -242t229 -92q124 0 216 72t130 190h129q-53 -180 -174.5 -275.5t-306.5 -95.5q-206 0 -318 120t-112 329zM180 602h690q0 15 1 42t1 40 q0 133 -78 214t-210 81q-152 0 -260 -109.5t-144 -267.5zM514 1198l238 295h166l-295 -295h-109z" />
<glyph unicode="&#xea;" horiz-adv-x="1062" d="M29 418q0 127 39 246t110 213.5t181 152t241 57.5q188 0 294.5 -112t106.5 -299q0 -103 -10 -182h-827q-6 -37 -6 -82q0 -150 78 -242t229 -92q124 0 216 72t130 190h129q-53 -180 -174.5 -275.5t-306.5 -95.5q-206 0 -318 120t-112 329zM180 602h690q0 15 1 42t1 40 q0 133 -78 214t-210 81q-152 0 -260 -109.5t-144 -267.5zM336 1198l278 295h129l177 -295h-117l-135 217l-207 -217h-125z" />
<glyph unicode="&#xeb;" horiz-adv-x="1062" d="M29 418q0 127 39 246t110 213.5t181 152t241 57.5q188 0 294.5 -112t106.5 -299q0 -103 -10 -182h-827q-6 -37 -6 -82q0 -150 78 -242t229 -92q124 0 216 72t130 190h129q-53 -180 -174.5 -275.5t-306.5 -95.5q-206 0 -318 120t-112 329zM180 602h690q0 15 1 42t1 40 q0 133 -78 214t-210 81q-152 0 -260 -109.5t-144 -267.5zM418 1231l39 209h131l-41 -209h-129zM743 1231l39 209h131l-41 -209h-129z" />
<glyph unicode="&#xec;" horiz-adv-x="378" d="M-23 0l228 1057h129l-228 -1057h-129zM137 1493h152l168 -295h-103z" />
<glyph unicode="&#xed;" horiz-adv-x="378" d="M-23 0l228 1057h129l-228 -1057h-129zM172 1198l238 295h165l-294 -295h-109z" />
<glyph unicode="&#xee;" horiz-adv-x="378" d="M-23 0l228 1057h129l-228 -1057h-129zM-6 1198l278 295h129l177 -295h-117l-135 217l-207 -217h-125z" />
<glyph unicode="&#xef;" horiz-adv-x="378" d="M-23 0l228 1057h129l-228 -1057h-129zM76 1231l39 209h131l-41 -209h-129zM401 1231l39 209h131l-41 -209h-129z" />
<glyph unicode="&#xf0;" d="M29 389q0 125 40 240.5t112.5 206.5t186 145.5t250.5 54.5q205 0 293 -135h4q-19 106 -67.5 205.5t-118.5 169.5l-221 -113l-53 64l213 108q-73 68 -172 113l94 72q104 -52 184 -129l240 120l53 -63l-236 -119q107 -120 161.5 -280.5t49.5 -335.5q-2 -116 -24 -221.5 t-68.5 -202t-113.5 -167t-166 -112t-219 -41.5q-201 0 -311.5 114t-110.5 306zM158 401q0 -150 80 -236.5t237 -86.5q83 0 156 34t123.5 89t87 125.5t54 144.5t17.5 145q0 142 -81 227t-236 85q-82 0 -154 -32.5t-123 -86.5t-88 -122.5t-55 -142t-18 -143.5z" />
<glyph unicode="&#xf1;" horiz-adv-x="1099" d="M-23 0l228 1057h119l-37 -193h4q63 99 163 161t214 62q147 0 233 -69.5t86 -214.5q0 -47 -16 -125l-146 -678h-129l148 682q14 58 14 106q0 98 -63 144.5t-158 46.5q-142 0 -257 -119t-157 -317l-117 -543h-129zM352 1229q26 91 64 141q52 66 127 66q53 0 143 -54 q3 -2 15.5 -10t16 -10t15 -8.5t16.5 -9t15.5 -7.5t16.5 -7t15 -4.5t17 -3.5t16 -1q29 0 56.5 39t36.5 76h82q-19 -87 -60 -138q-52 -69 -123 -69q-55 0 -155 55l-20 12t-21 12.5t-19 10.5t-20 10t-17 7t-18 5.5t-16 1.5q-35 0 -62.5 -36.5t-36.5 -77.5h-84z" />
<glyph unicode="&#xf2;" d="M29 410q0 131 40 252t112.5 216t186 152t250.5 57q188 0 303 -110.5t115 -302.5q0 -108 -23 -210t-71 -192t-116 -157.5t-164.5 -106.5t-210.5 -39q-201 0 -311.5 119.5t-110.5 321.5zM158 422q0 -159 80 -251.5t237 -92.5q101 0 186 54t137 139t80.5 183t28.5 193 q0 152 -80 242t-231 90q-82 0 -154 -34t-123 -90.5t-88 -129t-55 -150.5t-18 -153zM457 1493h151l168 -295h-102z" />
<glyph unicode="&#xf3;" d="M29 410q0 131 40 252t112.5 216t186 152t250.5 57q188 0 303 -110.5t115 -302.5q0 -108 -23 -210t-71 -192t-116 -157.5t-164.5 -106.5t-210.5 -39q-201 0 -311.5 119.5t-110.5 321.5zM158 422q0 -159 80 -251.5t237 -92.5q101 0 186 54t137 139t80.5 183t28.5 193 q0 152 -80 242t-231 90q-82 0 -154 -34t-123 -90.5t-88 -129t-55 -150.5t-18 -153zM553 1198l238 295h165l-294 -295h-109z" />
<glyph unicode="&#xf4;" d="M29 410q0 131 40 252t112.5 216t186 152t250.5 57q188 0 303 -110.5t115 -302.5q0 -108 -23 -210t-71 -192t-116 -157.5t-164.5 -106.5t-210.5 -39q-201 0 -311.5 119.5t-110.5 321.5zM158 422q0 -159 80 -251.5t237 -92.5q101 0 186 54t137 139t80.5 183t28.5 193 q0 152 -80 242t-231 90q-82 0 -154 -34t-123 -90.5t-88 -129t-55 -150.5t-18 -153zM375 1198l278 295h129l176 -295h-116l-135 217l-207 -217h-125z" />
<glyph unicode="&#xf5;" d="M29 410q0 131 40 252t112.5 216t186 152t250.5 57q188 0 303 -110.5t115 -302.5q0 -108 -23 -210t-71 -192t-116 -157.5t-164.5 -106.5t-210.5 -39q-201 0 -311.5 119.5t-110.5 321.5zM158 422q0 -159 80 -251.5t237 -92.5q101 0 186 54t137 139t80.5 183t28.5 193 q0 152 -80 242t-231 90q-82 0 -154 -34t-123 -90.5t-88 -129t-55 -150.5t-18 -153zM373 1229q26 93 63 141q52 66 127 66q54 0 144 -54q3 -2 15.5 -10t16 -10t15 -8.5t16.5 -9t15.5 -7.5t16.5 -7t15 -4.5t17 -3.5t16 -1q29 0 56 38.5t36 76.5h82q-20 -89 -59 -138 q-52 -69 -123 -69q-56 0 -156 55l-20 12t-21 12.5t-19 10.5t-20 10t-17 7t-18 5.5t-16 1.5q-35 0 -62 -36.5t-36 -77.5h-84z" />
<glyph unicode="&#xf6;" d="M29 410q0 131 40 252t112.5 216t186 152t250.5 57q188 0 303 -110.5t115 -302.5q0 -108 -23 -210t-71 -192t-116 -157.5t-164.5 -106.5t-210.5 -39q-201 0 -311.5 119.5t-110.5 321.5zM158 422q0 -159 80 -251.5t237 -92.5q101 0 186 54t137 139t80.5 183t28.5 193 q0 152 -80 242t-231 90q-82 0 -154 -34t-123 -90.5t-88 -129t-55 -150.5t-18 -153zM457 1231l39 209h131l-41 -209h-129zM782 1231l39 209h131l-41 -209h-129z" />
<glyph unicode="&#xf7;" horiz-adv-x="1228" d="M100 461v108h1030v-108h-1030zM500 102q0 47 34 81t80 34t80.5 -34.5t34.5 -80.5q0 -43 -34.5 -78.5t-78.5 -35.5q-47 0 -81.5 34t-34.5 80zM500 928q0 47 34 80.5t80 33.5t80.5 -34t34.5 -80q0 -43 -34.5 -79t-78.5 -36q-47 0 -81.5 34.5t-34.5 80.5z" />
<glyph unicode="&#xf8;" d="M-29 0l133 133q-75 113 -75 277q0 131 40 252t112.5 216t186 152t250.5 57q198 0 312 -120l119 118l45 -43l-123 -124q65 -103 65 -244q0 -108 -23 -210t-71 -192t-116 -157.5t-164.5 -106.5t-210.5 -39q-194 0 -308 117l-131 -131zM158 422q0 -118 41 -193l639 645 q-82 105 -242 105q-82 0 -154 -34t-123 -90.5t-88 -129t-55 -150.5t-18 -153zM233 178q81 -100 242 -100q101 0 186 54t137 139t80.5 183t28.5 193q0 97 -35 172z" />
<glyph unicode="&#xf9;" horiz-adv-x="1099" d="M41 254q0 47 16 125l146 678h129l-148 -682q-14 -58 -14 -107q0 -97 63 -143.5t158 -46.5q142 0 257 119t157 317l117 543h129l-228 -1057h-118l36 193h-4q-63 -99 -163 -161.5t-214 -62.5q-146 0 -232.5 70t-86.5 215zM436 1493h152l168 -295h-103z" />
<glyph unicode="&#xfa;" horiz-adv-x="1099" d="M41 254q0 47 16 125l146 678h129l-148 -682q-14 -58 -14 -107q0 -97 63 -143.5t158 -46.5q142 0 257 119t157 317l117 543h129l-228 -1057h-118l36 193h-4q-63 -99 -163 -161.5t-214 -62.5q-146 0 -232.5 70t-86.5 215zM532 1198l238 295h166l-295 -295h-109z" />
<glyph unicode="&#xfb;" horiz-adv-x="1099" d="M41 254q0 47 16 125l146 678h129l-148 -682q-14 -58 -14 -107q0 -97 63 -143.5t158 -46.5q142 0 257 119t157 317l117 543h129l-228 -1057h-118l36 193h-4q-63 -99 -163 -161.5t-214 -62.5q-146 0 -232.5 70t-86.5 215zM334 1198l278 295h129l177 -295h-117l-135 217 l-207 -217h-125z" />
<glyph unicode="&#xfc;" horiz-adv-x="1099" d="M41 254q0 47 16 125l146 678h129l-148 -682q-14 -58 -14 -107q0 -97 63 -143.5t158 -46.5q142 0 257 119t157 317l117 543h129l-228 -1057h-118l36 193h-4q-63 -99 -163 -161.5t-214 -62.5q-146 0 -232.5 70t-86.5 215zM416 1231l39 209h131l-41 -209h-129zM741 1231 l39 209h131l-41 -209h-129z" />
<glyph unicode="&#xfd;" horiz-adv-x="948" d="M-113 -381l25 105q65 -7 111 -7q96 0 165 115l97 168l-195 1057h135l152 -897h4l487 897h140l-752 -1307q-80 -141 -256 -141q-21 0 -59.5 4.5t-53.5 5.5zM457 1198l237 295h166l-295 -295h-108z" />
<glyph unicode="&#xfe;" horiz-adv-x="1175" d="M-94 -391l399 1853h129l-127 -592h4q60 107 148.5 162t222.5 55q197 0 299 -116t102 -316q0 -97 -25.5 -195.5t-76 -186t-119 -156t-161 -108.5t-195.5 -40q-133 0 -225 59.5t-113 182.5h-4l-129 -602h-129zM209 383q0 -140 78 -222.5t217 -82.5q106 0 194.5 55 t142.5 142t83.5 188t29.5 201q0 142 -71.5 228.5t-212.5 86.5q-86 0 -161.5 -37t-129.5 -97.5t-93 -138.5t-58 -160.5t-19 -162.5z" />
<glyph unicode="&#xff;" horiz-adv-x="948" d="M-113 -381l25 105q65 -7 111 -7q96 0 165 115l97 168l-195 1057h135l152 -897h4l487 897h140l-752 -1307q-80 -141 -256 -141q-21 0 -59.5 4.5t-53.5 5.5zM360 1231l39 209h131l-41 -209h-129zM686 1231l39 209h131l-41 -209h-129z" />
<glyph unicode="&#x152;" horiz-adv-x="2123" d="M94 610q0 132 33 260t99.5 240.5t158.5 198t217.5 135t267.5 49.5q134 0 250 -52t183 -159l38 180h910l-27 -119h-778l-111 -528h717l-27 -119h-716l-121 -577h797l-27 -119h-932l29 131l-4 4q-62 -84 -165.5 -125t-219.5 -41q-145 0 -255.5 48t-179 134.5t-103 202 t-34.5 256.5zM233 606q0 -84 16.5 -159.5t51.5 -141.5t85.5 -114t124 -75.5t161.5 -27.5q161 0 284 94t156 248l131 621q8 39 8 57q0 64 -36 116t-94 84t-126 49t-137 17q-115 0 -216 -44t-175 -119t-127.5 -173.5t-80 -208.5t-26.5 -223z" />
<glyph unicode="&#x153;" horiz-adv-x="1857" d="M45 395q0 101 24.5 200.5t74 188t117.5 156.5t161.5 107.5t200.5 39.5q134 0 228.5 -69.5t111.5 -198.5h4q63 125 178.5 196.5t257.5 71.5q97 0 171 -34t118 -94t66 -135.5t22 -164.5q0 -56 -23 -165h-792q-17 -55 -17 -140q0 -128 81 -202t210 -74q127 0 218 70t128 192 h129q-55 -174 -180 -272.5t-303 -98.5q-147 0 -243.5 68t-129.5 207h-4q-58 -126 -168 -200.5t-248 -74.5q-188 0 -290.5 115t-102.5 311zM174 399q0 -142 70 -231.5t209 -89.5q75 0 139 29t109 79t79 113t53.5 135t29 140.5t9.5 134.5q0 124 -72 197t-196 73 q-84 0 -156 -36.5t-121.5 -96t-84.5 -136t-51.5 -156t-16.5 -155.5zM985 602h660q6 50 6 90q-3 127 -74 207t-205 80q-80 0 -146.5 -29.5t-113.5 -82t-78.5 -119t-48.5 -146.5z" />
<glyph unicode="&#x178;" horiz-adv-x="1175" d="M135 1462h148l329 -741l613 741h170l-733 -872l-130 -590h-141l133 604zM475 1595l39 209h131l-41 -209h-129zM801 1595l39 209h131l-41 -209h-129z" />
<glyph unicode="&#x2c6;" horiz-adv-x="378" d="M-6 1198l278 295h129l177 -295h-117l-135 217l-207 -217h-125z" />
<glyph unicode="&#x2dc;" horiz-adv-x="378" d="M-8 1229q26 93 63 141q52 66 127 66q54 0 144 -54q3 -2 15.5 -10t16 -10t15 -8.5t16.5 -9t15.5 -7.5t16.5 -7t15 -4.5t17 -3.5t16 -1q29 0 56 38.5t36 76.5h82q-20 -89 -59 -138q-52 -69 -123 -69q-56 0 -156 55l-20 12t-21 12.5t-19 10.5t-20 10t-17 7t-18 5.5t-16 1.5 q-35 0 -62 -36.5t-36 -77.5h-84z" />
<glyph unicode="&#x2000;" horiz-adv-x="974" />
<glyph unicode="&#x2001;" horiz-adv-x="1948" />
<glyph unicode="&#x2002;" horiz-adv-x="974" />
<glyph unicode="&#x2003;" horiz-adv-x="1948" />
<glyph unicode="&#x2004;" horiz-adv-x="649" />
<glyph unicode="&#x2005;" horiz-adv-x="487" />
<glyph unicode="&#x2006;" horiz-adv-x="324" />
<glyph unicode="&#x2007;" horiz-adv-x="324" />
<glyph unicode="&#x2008;" horiz-adv-x="243" />
<glyph unicode="&#x2009;" horiz-adv-x="389" />
<glyph unicode="&#x200a;" horiz-adv-x="108" />
<glyph unicode="&#x2010;" horiz-adv-x="757" d="M78 504l24 119h514l-24 -119h-514z" />
<glyph unicode="&#x2011;" horiz-adv-x="757" d="M78 504l24 119h514l-24 -119h-514z" />
<glyph unicode="&#x2012;" horiz-adv-x="757" d="M78 504l24 119h514l-24 -119h-514z" />
<glyph unicode="&#x2013;" horiz-adv-x="1024" d="M-49 504l24 119h1024l-24 -119h-1024z" />
<glyph unicode="&#x2014;" horiz-adv-x="2048" d="M217 504l25 119h1515l-24 -119h-1516z" />
<glyph unicode="&#x2018;" horiz-adv-x="569" d="M262 967l68 284q23 95 72 139.5t153 71.5l-16 -82q-34 -10 -58.5 -29t-40.5 -49.5t-24 -54t-19 -65.5h86l-49 -215h-172z" />
<glyph unicode="&#x2019;" horiz-adv-x="569" d="M225 965l17 82q34 10 58.5 29t40 49.5t23.5 53.5t19 66h-86l49 217h172l-67 -286q-22 -95 -72 -139.5t-154 -71.5z" />
<glyph unicode="&#x201a;" horiz-adv-x="569" d="M-25 -281l17 82q28 8 49.5 24t34.5 32t25 44t17.5 46.5t14.5 52.5h-86l49 217h172l-67 -287q-22 -95 -72 -139.5t-154 -71.5z" />
<glyph unicode="&#x201c;" horiz-adv-x="757" d="M195 967l67 284q23 95 72 139.5t153 71.5l-16 -82q-34 -10 -58.5 -29t-40 -49.5t-23.5 -53.5t-19 -66h86l-49 -215h-172zM508 967l67 284q22 95 72 139.5t154 71.5l-17 -82q-34 -10 -58.5 -29t-40 -49.5t-23.5 -53.5t-19 -66h86l-49 -215h-172z" />
<glyph unicode="&#x201d;" horiz-adv-x="757" d="M137 965l17 82q34 10 58.5 29t40 49.5t23.5 53.5t19 66h-86l49 217h172l-68 -286q-23 -95 -72 -139.5t-153 -71.5zM451 965l16 82q34 10 58.5 29t40 49.5t23.5 53.5t19 66h-86l49 217h172l-67 -286q-23 -95 -72 -139.5t-153 -71.5z" />
<glyph unicode="&#x201e;" horiz-adv-x="757" d="M-72 -281l17 82q28 8 49.5 24t34.5 32t25 44t17.5 46.5t14.5 52.5h-86l49 217h172l-67 -287q-22 -95 -72 -139.5t-154 -71.5zM242 -281l16 82q28 8 49.5 24t34.5 32t25 44t17.5 46.5t14.5 52.5h-86l49 217h173l-68 -287q-23 -95 -72 -139.5t-153 -71.5z" />
<glyph unicode="&#x2022;" horiz-adv-x="1024" d="M147 731q0 152 106.5 258.5t258.5 106.5t259.5 -106.5t107.5 -258.5t-107.5 -259t-259.5 -107t-258.5 107t-106.5 259z" />
<glyph unicode="&#x2026;" horiz-adv-x="2048" d="M106 0l48 217h174l-49 -217h-173zM791 0l47 217h174l-49 -217h-172zM1475 0l47 217h174l-49 -217h-172z" />
<glyph unicode="&#x202f;" horiz-adv-x="389" />
<glyph unicode="&#x2039;" horiz-adv-x="530" d="M104 526l31 131l326 232l-31 -139l-237 -172l153 -209l-24 -129z" />
<glyph unicode="&#x203a;" horiz-adv-x="530" d="M20 240l31 139l238 172l-154 209l25 129l217 -287l-31 -131z" />
<glyph unicode="&#x205f;" horiz-adv-x="487" />
<glyph unicode="&#x20ac;" d="M-6 584l53 90h113l16 123h-129l55 90h95q22 90 57 170.5t88 154t117 126.5t149 84.5t180 31.5q115 0 198 -36.5t173 -119.5l-69 -108q-70 73 -139 108t-163 35q-310 0 -448 -446h639l-53 -90h-609l-16 -123h569l-55 -90h-520q0 -76 9.5 -143.5t34.5 -134.5t63.5 -115.5 t102 -78.5t144.5 -30q30 0 59.5 4.5t51.5 9.5t53 19t45.5 20.5t48.5 28t43.5 27.5t48 33t45.5 32l-38 -170q-90 -62 -176 -90.5t-189 -28.5q-107 0 -191 34t-138.5 91t-90 137.5t-50.5 167.5t-15 187h-162z" />
<glyph unicode="&#x2122;" horiz-adv-x="2027" d="M168 1370v92h657v-92h-274v-752h-109v752h-274zM975 618v844h174l272 -684l265 684h174v-844h-109v746h-4l-299 -746h-62l-299 746h-4v-746h-108z" />
<glyph unicode="&#xe000;" horiz-adv-x="1054" d="M0 0v1055h1055v-1055h-1055z" />
</font>
</defs>
</svg>
