<?xml version="1.0" standalone="no"?>
<!DOCTYPE svg PUBLIC "-//W3C//DTD SVG 1.1//EN" "http://www.w3.org/Graphics/SVG/1.1/DTD/svg11.dtd" >
<svg xmlns="http://www.w3.org/2000/svg">
<metadata></metadata>
<defs>
<font id="parkavenue_btregular" horiz-adv-x="1024" >
<font-face units-per-em="2048" ascent="1638" descent="-410" />
<missing-glyph horiz-adv-x="463" />
<glyph horiz-adv-x="2048" />
<glyph horiz-adv-x="2048" />
<glyph unicode="&#xd;" horiz-adv-x="463" />
<glyph unicode=" "  horiz-adv-x="463" />
<glyph unicode="&#x09;" horiz-adv-x="463" />
<glyph unicode="&#xa0;" horiz-adv-x="463" />
<glyph unicode="!" horiz-adv-x="451" d="M53 57q0 44 25.5 73.5t62.5 29.5q31 0 49.5 -19.5t18.5 -50.5q0 -43 -25 -71.5t-63 -28.5q-32 0 -50 18t-18 49zM156 399v9q0 88 20.5 266t56.5 360q38 194 77 272t96 78q27 0 43 -15t16 -40q0 -32 -64.5 -170t-99.5 -248q-50 -154 -80.5 -303t-30.5 -200q0 -12 -6 -19.5 t-14 -7.5t-11 3.5t-3 14.5z" />
<glyph unicode="&#x22;" horiz-adv-x="666" d="M94 1368q0 46 20 70t58 24q37 0 56.5 -24t19.5 -70q0 -6 -1 -15.5l-3 -28.5l-58 -454h-28l-60 453q-2 12 -3 23.5t-1 21.5zM418 1368q0 47 19 70.5t57 23.5q37 0 57 -24.5t20 -69.5q0 -7 -0.5 -15.5t-3.5 -29.5l-59 -453h-29l-57 453q-2 12 -3 23.5t-1 21.5z" />
<glyph unicode="#" horiz-adv-x="1575" d="M129 494l31 79h338l106 304h-368l28 79h369l176 498h94l-174 -498h299l176 498h96l-176 -498h322l-27 -79h-323l-107 -304h348l-28 -79h-348l-175 -494h-96l174 494h-301l-174 -494h-94l174 494h-340zM592 573h301l106 304h-299z" />
<glyph unicode="$" horiz-adv-x="877" d="M-74 96q0 58 67.5 139.5t180.5 157.5q34 -23 51 -41.5t17 -32.5q0 -15 -56 -34l-18 -6q-93 -31 -138.5 -62t-45.5 -63q0 -27 22.5 -38.5t79.5 -11.5h223l111 480q-129 151 -176 232t-47 142q0 89 97 144t258 57l36 154q5 20 12 29.5t16 9.5q8 0 12.5 -7.5t4.5 -19.5 q0 -7 -0.5 -11.5t-1.5 -8.5l-35 -148q116 -9 174.5 -41.5t58.5 -87.5q0 -39 -38 -77t-66 -38q-6 0 -9 3.5t-3 9.5t24.5 35t24.5 63q0 43 -43 68t-129 32l-101 -432q130 -145 180 -239t50 -183q0 -126 -75 -198t-208 -72h-106l-68 -297q-6 -29 -12 -37t-17 -8q-7 0 -13.5 6.5 t-6.5 13.5q0 3 2 17q1 6 2 10l68 295h-189q-93 0 -131.5 22t-38.5 74zM301 991q0 -32 34.5 -90t119.5 -166l90 391h-13q-100 0 -165.5 -39.5t-65.5 -95.5zM354 104h146q88 0 129 23.5t41 73.5q0 49 -54 133.5t-161 204.5z" />
<glyph unicode="%" horiz-adv-x="1511" d="M0 745q0 94 31.5 169t95.5 133q35 31 76 53t55 22q7 0 9.5 -2t2.5 -6q0 -1 -82 -86.5t-82 -191.5q0 -90 33 -130t107 -40h84q108 0 172.5 64t64.5 169q0 78 -26.5 122.5t-91.5 76.5h-54q-15 0 -18.5 1.5t-3.5 6.5q0 31 7.5 43t29.5 12h598q48 0 58.5 -3.5t10.5 -12.5 q0 -6 -36.5 -48t-65.5 -81q-112 -151 -289 -528q-42 -88 -63 -134q-119 -246 -251 -408.5t-179 -162.5q-8 0 -13 4.5t-6 11.5q0 6 27 35q152 164 293 424q50 93 133 281q185 415 356 559h-371q20 -41 29.5 -77.5t9.5 -70.5q0 -150 -139 -270.5t-313 -120.5q-103 0 -151 45 t-48 141zM709 172q0 169 116.5 295.5t278.5 126.5q110 0 180 -62t70 -161q0 -142 -145 -265.5t-308 -123.5q-98 0 -145 46.5t-47 143.5zM815 256q0 -89 33.5 -126.5t116.5 -37.5q148 0 221.5 50.5t73.5 152.5q0 109 -56.5 176.5t-144.5 67.5q-105 0 -174.5 -81t-69.5 -202z " />
<glyph unicode="&#x26;" horiz-adv-x="1477" d="M18 172q0 140 137.5 290t360.5 238q-96 16 -140 52t-44 98q0 71 72 146t194 126q109 46 228.5 71.5t226.5 25.5q46 0 63 -7.5t17 -25.5q0 -8 -3 -17.5t-8 -17.5l-71 -119q-17 -27 -28 -36t-28 -11l-59 -6h-23q-6 0 -11 4t-5 8t4.5 11.5t18.5 27.5l65 88q13 17 16 23.5 t3 13.5q0 15 -10 20t-46 5q-62 0 -136 -27.5t-155 -79.5q-98 -64 -154.5 -135.5t-56.5 -130.5q0 -35 33 -56.5t88 -21.5q25 0 95 14.5t118 14.5q44 0 67 -7.5t23 -21.5q0 -28 -129.5 -65t-226.5 -76q-179 -73 -318 -203.5t-139 -206.5q0 -33 29.5 -49t89.5 -16h389 q129 0 221.5 20t159.5 64q73 47 121.5 127t48.5 147q0 48 -23 70t-73 22q-75 0 -140.5 -41t-70.5 -41q-8 0 -12 3.5t-4 9.5q0 11 29 39t83 69q49 37 84 50.5t105 13.5h211q51 0 113 14q17 4 22 4q8 0 13 -4t5 -10q0 -32 -54 -71.5t-130 -39.5h-43h-39q-19 -106 -68.5 -206 t-122.5 -181q-92 -101 -215 -142.5t-397 -41.5q-207 0 -289 42t-82 142z" />
<glyph unicode="'" horiz-adv-x="342" d="M94 1368q0 47 19 70.5t57 23.5q37 0 57.5 -24.5t20.5 -69.5q0 -6 -1 -15.5l-3 -28.5l-60 -454h-28l-60 454q-1 6 -1.5 15t-0.5 29z" />
<glyph unicode="(" horiz-adv-x="901" d="M129 -141q0 391 121 774.5t325 646.5q64 82 131.5 140.5t90.5 58.5q5 -1 7.5 -4t2.5 -9q0 -4 -69 -87t-124 -177q-72 -122 -133.5 -275.5t-118.5 -355.5q-70 -252 -106.5 -471.5t-36.5 -390.5q0 -163 41 -320q6 -22 6 -26q0 -8 -4.5 -15t-9.5 -7q-29 0 -76 166t-47 352z " />
<glyph unicode=")" horiz-adv-x="901" d="M-12 -649q0 4 68.5 87t123.5 177q73 122 134 275.5t118 355.5q69 248 105 468t36 394q0 163 -39 320q-6 23 -6 26q0 9 5 16t10 7q29 0 76 -165.5t47 -350.5q0 -392 -121 -776.5t-326 -647.5q-63 -82 -130.5 -140.5t-90.5 -58.5q-5 1 -7.5 4t-2.5 9z" />
<glyph unicode="*" horiz-adv-x="786" d="M180 999q0 33 86 49v1l178 32l-149 103q-2 1 -3 2q-56 40 -56 63q0 18 14 32.5t29 14.5q24 0 59 -41q6 -7 10 -12l117 -139l14 182q4 53 14.5 71.5t32.5 18.5q23 0 36 -12t13 -33q0 -14 -11 -47q-3 -9 -5 -14l-63 -172l163 80q25 13 40.5 17.5t31.5 4.5t27.5 -14 t11.5 -33q0 -21 -16 -32t-70 -21l-178 -31l151 -102q35 -23 47.5 -37.5t12.5 -28.5q0 -17 -14 -32t-29 -15q-26 0 -64 44q-5 6 -8 9l-117 137l-12 -180q-3 -50 -15 -70t-36 -20q-21 0 -33 12t-12 33q0 17 14 55q1 4 2 7l62 170l-164 -78l-8 -4q-40 -21 -64 -21 q-16 0 -27.5 14.5t-11.5 36.5z" />
<glyph unicode="+" horiz-adv-x="1706" d="M254 569v82h559v570h80v-570h559v-82h-559v-569h-80v569h-559z" />
<glyph unicode="," horiz-adv-x="418" d="M-109 -246q0 7 57 73.5t72 127.5q7 27 10 89q5 136 79 136q29 0 45 -17.5t16 -49.5q0 -59 -40.5 -131t-119.5 -154q-41 -42 -68.5 -66t-35.5 -24q-7 0 -11 4.5t-4 11.5z" />
<glyph unicode="-" horiz-adv-x="563" d="M-12 236l37 98h376l-36 -98h-377z" />
<glyph unicode="." horiz-adv-x="418" d="M25 57q0 37 24 62.5t60 25.5q30 0 46.5 -17.5t16.5 -49.5q0 -38 -23 -63t-59 -25q-31 0 -48 17.5t-17 49.5z" />
<glyph unicode="/" horiz-adv-x="569" d="M-66 -190l658 1564h84l-658 -1564h-84z" />
<glyph unicode="0" horiz-adv-x="905" d="M33 229q0 210 141.5 367.5t319.5 157.5q121 0 194.5 -81t73.5 -216q0 -101 -42.5 -185.5t-133.5 -162.5q-79 -67 -156 -95t-197 -28q-109 0 -154.5 55.5t-45.5 187.5zM133 311q0 -125 34 -174t128 -49h186q93 47 137 116.5t44 170.5q0 136 -70.5 223.5t-177.5 87.5 q-114 0 -197.5 -107.5t-83.5 -267.5z" />
<glyph unicode="1" horiz-adv-x="479" d="M2 594v51q137 17 248.5 75l111.5 58q7 0 13 -5.5t6 -12.5q0 -4 -8 -20q-51 -99 -82 -273q-42 -237 -98.5 -337.5t-161.5 -176.5l-27 22q92 125 142 363.5t92 329.5q-65 -29 -124.5 -47.5t-111.5 -26.5z" />
<glyph unicode="2" horiz-adv-x="788" d="M-51 0v6q0 46 70.5 128.5t199.5 184.5q36 29 101 80q225 174 225 248q0 44 -40 66t-118 22q-94 0 -152.5 -47t-58.5 -123q0 -2 1 -6t1 -6q0 -27 -13 -38t-44 -11q-34 0 -46 8t-12 35q0 94 95.5 159.5t238.5 65.5q121 0 191.5 -43t70.5 -115q0 -61 -51.5 -117.5 t-183.5 -131.5l-51 -30q-280 -162 -336 -235h344q145 0 217 46q12 8 16 8q12 0 15.5 -2t3.5 -5q0 -37 -100.5 -92t-225.5 -55h-358z" />
<glyph unicode="3" horiz-adv-x="829" d="M-149 -229q34 55 65 74.5t80 19.5q27 0 82 -1t84 -1q174 0 264 64.5t90 189.5q0 84 -71 114.5t-306 30.5h-63q40 86 148 93q43 3 66 7q123 25 205.5 103.5t82.5 159.5q0 53 -34 75.5t-114 22.5q-97 0 -163 -40t-70 -101q-1 -11 -2 -30q-3 -60 -72 -60q-27 0 -36 7t-9 25 q0 111 98.5 172.5t276.5 61.5q120 0 182.5 -37t62.5 -107q0 -69 -83.5 -135t-249.5 -129q129 -15 192.5 -63t63.5 -131q0 -150 -188.5 -269.5t-459.5 -119.5q-22 0 -46.5 0.5t-75.5 3.5z" />
<glyph unicode="4" horiz-adv-x="895" d="M-47 0q11 139 119 302.5t278 293.5q106 81 229.5 138t165.5 57q9 -1 12 -3t3 -6q0 -2 -11 -23q-127 -248 -190 -665h16q115 0 198 65q17 13 22 13q4 0 6.5 -2t3.5 -6q0 -46 -84 -105t-182 -59q-39 -151 -104 -254.5t-109 -103.5q-9 0 -15 4t-6 10q0 7 18 35 q86 132 117 309h-487zM70 94h385q42 241 88.5 385t113.5 254q-225 -101 -371 -259.5t-216 -379.5z" />
<glyph unicode="5" horiz-adv-x="868" d="M-98 -231q45 47 84.5 66.5t89.5 19.5h153q136 0 231 120.5t95 280.5q0 93 -45 139.5t-133 46.5q-75 0 -148.5 -48.5t-162.5 -157.5l-25 14l96 248q62 161 104.5 199t123.5 38h260q63 0 98 2.5t67 7.5q-37 -56 -83 -79t-154 -23h-170q-144 0 -203 -137q-5 -12 -8 -18 l-61 -144q110 91 179 121.5t146 30.5q111 0 172.5 -58.5t61.5 -163.5q0 -192 -192 -353t-433 -161q-30 0 -66.5 2.5t-76.5 6.5z" />
<glyph unicode="6" horiz-adv-x="915" d="M45 270q0 166 96 341.5t281 349.5q91 85 171.5 142.5t100.5 57.5q7 0 10 -3.5t3 -12.5q0 -11 -55 -53q-249 -189 -400 -471q54 65 122 100t140 35q115 0 185.5 -81t70.5 -216q0 -187 -146 -332t-337 -145q-131 0 -186.5 66.5t-55.5 221.5zM174 301q0 -125 36.5 -173 t147.5 -48q164 0 236 71t72 230q0 139 -60.5 218t-165.5 79q-112 0 -189 -108.5t-77 -268.5z" />
<glyph unicode="7" horiz-adv-x="733" d="M35 614q0 47 16.5 67t71.5 38q70 23 165 36t199 13q139 0 190.5 -7t51.5 -24q0 -10 -28 -34.5t-44 -45.5q-64 -83 -169 -355q-18 -45 -27 -69q-83 -209 -188.5 -347t-149.5 -138q-10 0 -15.5 4.5t-5.5 11.5q0 5 66 103t117 217q21 51 59 153q127 347 287 480 q-51 7 -89 10.5t-71 3.5q-144 0 -236 -29.5t-92 -72.5q0 -23 7.5 -61t7.5 -52q0 -26 -29.5 -54t-48.5 -28q-17 0 -31 54t-14 126z" />
<glyph unicode="8" horiz-adv-x="874" d="M-16 117q0 96 70 176t329 239q-92 84 -133 138.5t-41 91.5q0 42 52 90t159 104q88 47 160 71t129 24q51 0 78.5 -24t27.5 -69q0 -10 1 -31.5t1 -31.5q0 -46 -32.5 -80.5t-59.5 -34.5q-11 0 -14.5 10.5t-3.5 43.5v24q0 79 -14 105t-52 26q-33 0 -75.5 -12.5t-98.5 -38.5 q-77 -36 -115.5 -70.5t-38.5 -66.5q0 -28 39 -77t131 -136q39 19 101.5 47t81.5 37l16 -29q-43 -20 -85 -41.5t-85 -46.5q93 -80 133.5 -142.5t40.5 -125.5q0 -133 -114.5 -213t-313.5 -80h-160q-57 0 -85.5 31t-28.5 92zM98 176q0 -41 24.5 -60.5t76.5 -19.5h211 q115 0 155.5 26.5t40.5 94.5q0 64 -40 124.5t-154 160.5q-148 -88 -231 -174.5t-83 -151.5z" />
<glyph unicode="9" horiz-adv-x="924" d="M35 229q0 83 30 163.5t89 156.5q74 94 168.5 149.5t179.5 55.5q115 0 187.5 -83.5t72.5 -217.5q0 -170 -93 -340.5t-286 -354.5q-99 -95 -165 -148.5t-83 -53.5q-8 0 -14 5t-6 11q0 1 162.5 161.5t252.5 358.5q-62 -59 -129 -88t-143 -29q-110 0 -166.5 64.5t-56.5 189.5 zM145 307q0 -114 35 -172.5t103 -58.5h75q129 0 203 93t74 253q0 119 -56.5 187.5t-154.5 68.5q-111 0 -195 -110t-84 -261z" />
<glyph unicode=":" horiz-adv-x="465" d="M39 57q0 37 24.5 62.5t59.5 25.5q30 0 46.5 -17.5t16.5 -49.5q0 -38 -23.5 -63t-60.5 -25q-30 0 -46.5 17.5t-16.5 49.5zM127 512q0 37 24.5 63.5t59.5 26.5q31 0 48 -18.5t17 -51.5q0 -37 -23.5 -62.5t-59.5 -25.5q-31 0 -48.5 18t-17.5 50z" />
<glyph unicode=";" horiz-adv-x="465" d="M-43 -236q0 11 18 35q76 107 76 291q0 41 18.5 64.5t49.5 23.5q28 0 45.5 -20t17.5 -54q0 -49 -30.5 -111.5t-96.5 -148.5q-7 -9 -19 -25q-51 -67 -65 -67q-5 0 -9.5 4t-4.5 8zM127 512q0 37 24.5 63.5t59.5 26.5q31 0 48 -18.5t17 -51.5q0 -37 -23.5 -62.5t-59.5 -25.5 q-31 0 -48.5 18t-17.5 50z" />
<glyph unicode="&#x3c;" horiz-adv-x="1706" d="M264 580v61l1178 483v-90l-1045 -424l1045 -424v-88z" />
<glyph unicode="=" horiz-adv-x="1706" d="M254 387v82h1198v-82h-1198zM254 752v79h1198v-79h-1198z" />
<glyph unicode="&#x3e;" horiz-adv-x="1706" d="M264 98v88l1045 424l-1045 424v90l1178 -483v-61z" />
<glyph unicode="?" horiz-adv-x="786" d="M141 57q0 45 24.5 74t61.5 29q31 0 49.5 -19.5t18.5 -50.5q0 -44 -24.5 -72t-61.5 -28q-32 0 -50 18t-18 49zM162 1180q0 79 88.5 138.5t212.5 59.5q139 0 225 -76.5t86 -199.5q0 -77 -33.5 -144t-119.5 -155q-47 -49 -134 -125t-118 -113q-53 -61 -69 -125.5t-17 -64.5 q-15 0 -29 28.5t-14 67.5q0 120 226 337l32 30l16 15q176 169 176 298q0 91 -56.5 139.5t-162.5 48.5q-97 0 -154 -44.5t-57 -123.5q0 -32 2 -69t2 -41q0 -39 -27 -93.5t-44 -54.5q-8 1 -14.5 7.5t-6.5 13.5q0 6 1 17t1 16v30l-10 146q0 4 -1 16t-1 21z" />
<glyph unicode="@" horiz-adv-x="2019" d="M150 537q0 203 85 378.5t250 313.5q132 109 290.5 165t338.5 56q345 0 551.5 -186.5t206.5 -497.5q0 -156 -58 -295.5t-163 -234.5q-60 -55 -123.5 -83t-128.5 -28q-97 0 -148 55t-57 164q-59 -108 -138.5 -162.5t-178.5 -54.5q-115 0 -188 92t-73 240q0 106 49 214 t136 193q65 65 142 101.5t151 36.5q83 0 139.5 -52t79.5 -149l57 184h121l-168 -604l-2 -6q-18 -68 -18 -103q0 -52 27.5 -81t76.5 -29q48 0 108 29t113 79q96 90 150.5 221.5t54.5 274.5q0 291 -194.5 467t-516.5 176q-175 0 -327 -57.5t-271 -167.5q-137 -128 -206.5 -300 t-69.5 -382q0 -175 55.5 -301t177.5 -232q118 -102 268 -155.5t320 -53.5q173 0 331 53.5t292 155.5l26 -30q-146 -109 -309 -164.5t-340 -55.5q-191 0 -342.5 45.5t-271.5 139.5q-151 115 -228 275t-77 356zM731 381q0 -100 44 -157.5t120 -57.5q67 0 131 45.5t123 134.5 q59 91 93 198.5t34 198.5q0 96 -54.5 162t-131.5 66q-58 0 -104.5 -31t-94.5 -102q-74 -109 -117 -234t-43 -223z" />
<glyph unicode="A" horiz-adv-x="1962" d="M-78 188q0 175 278.5 311t684.5 136q40 0 91.5 -2.5t123.5 -7.5q169 418 353 573.5t495 155.5q12 -1 18 -4.5t6 -10.5q0 -4 -35.5 -29t-68.5 -79q-49 -80 -96 -244.5t-95 -425.5q73 -11 134.5 -16.5t99.5 -5.5q12 0 23 1l3 1q12 0 16.5 -2.5t4.5 -8.5q0 -26 -58.5 -41.5 t-158.5 -15.5q-27 0 -46 0.5t-38 1.5q-92 -323 -173 -496.5t-141 -173.5q-8 1 -11 1.5t-6 2.5q64 126 114 290t94 394q-39 6 -115 17q-229 34 -319 43q-127 -305 -311 -441.5t-467 -136.5q-190 0 -295 56.5t-105 156.5zM-23 223q0 -71 83.5 -107t246.5 -36q291 0 469 112 t287 363q-89 8 -152 11t-118 3q-340 0 -578 -107.5t-238 -238.5zM1137 625q143 -14 238.5 -25t176.5 -22q52 265 137.5 451.5t202.5 293.5q-237 -15 -422.5 -186.5t-332.5 -511.5z" />
<glyph unicode="B" horiz-adv-x="1753" d="M-55 -33q32 55 88.5 86.5t142.5 42.5q14 2 44 6q205 23 296 207q43 88 98.5 309t108.5 326q52 99 125 157t153 64q-2 -5 -18 -15q-95 -63 -154 -237q-29 -84 -80.5 -288.5t-103.5 -290.5q-40 -66 -105 -119t-163 -100h923q123 0 169.5 30t46.5 107q0 60 -22 124t-62 126 q-32 47 -80.5 75.5t-153.5 53.5q-88 21 -212 31.5t-124 23.5q0 7 30 35.5t48 28.5q16 0 44 -2.5t42 -2.5q212 0 355 89t143 215q0 128 -143 202t-394 74q-148 0 -285.5 -21t-234.5 -57q-54 -20 -81.5 -56t-27.5 -87q0 -56 17.5 -158t17.5 -147q0 -69 -26.5 -128t-49.5 -59 l-71 457q-1 6 -1.5 13.5t-0.5 21.5q0 51 33 84.5t116 66.5q135 54 325.5 82.5t414.5 28.5q251 0 378 -66.5t127 -197.5q0 -119 -101.5 -211t-305.5 -158q168 -27 262 -132.5t94 -266.5q0 -166 -120.5 -250t-356.5 -84h-989q-45 0 -89.5 -8.5t-86.5 -24.5z" />
<glyph unicode="C" horiz-adv-x="1126" d="M41 311q0 146 103 329t290 368q158 156 325.5 250t280.5 94q66 0 105 -23.5t39 -62.5q0 -94 -59 -225.5t-201 -350.5q-52 -80 -68 -100.5t-25 -20.5q-3 0 -6.5 3t-3.5 6q0 9 31 58q21 32 33 52q95 156 145.5 276t50.5 189q0 67 -30.5 102t-89.5 35q-97 0 -239.5 -111 t-281.5 -298q-53 -72 -100.5 -152t-103.5 -194q-74 -149 -97.5 -218.5t-23.5 -119.5q0 -70 91 -97.5t331 -27.5q308 0 472 68q14 5 17 5t5.5 -3.5t2.5 -8.5q0 -35 -162.5 -98.5t-351.5 -63.5q-246 0 -362.5 83t-116.5 257z" />
<glyph unicode="D" horiz-adv-x="1919" d="M25 -53q0 51 66 88t191 55q36 5 92 6.5t72 7.5q39 15 77 52t71 92q51 88 97 286t87 273q47 84 121.5 144.5t118.5 60.5q8 0 10 -1.5t2 -4.5q0 -11 -26 -29.5t-43 -38.5q-38 -46 -68 -120t-55 -187q-4 -16 -12 -50q-87 -387 -326 -485q280 -9 445 -12.5t259 -3.5 q283 0 393.5 46t110.5 157q0 74 -91.5 215t-270.5 346q-231 264 -443 391t-420 127q-133 0 -200.5 -65.5t-67.5 -194.5q0 -64 12.5 -161.5t38.5 -233.5l-63 -107q-8 -15 -14 -20.5t-15 -6.5q-12 0 -26 69q0 4 -1 5q-23 114 -37 220.5t-14 168.5q0 181 92 270t279 89 q196 0 413 -90t410 -252q219 -183 362.5 -384t143.5 -307q0 -81 -54 -157t-151 -131q-96 -56 -214 -80.5t-320 -24.5q-33 0 -104.5 1t-110.5 1h-639q-38 0 -82 -6.5t-96 -19.5v2z" />
<glyph unicode="E" horiz-adv-x="1221" d="M6 152q0 129 175.5 295.5t441.5 267.5q-148 49 -216.5 102.5t-68.5 118.5q0 70 72 136.5t219 131.5q152 67 312 106.5t269 39.5q47 0 74 -16t27 -42q0 -20 -19 -54t-69 -101q-25 -34 -42 -46t-53 -20l-71 -16q-17 -4 -22 -5t-7 -1q-7 0 -13.5 5.5t-6.5 10.5q0 4 75.5 81 t75.5 132q0 15 -16.5 22t-52.5 7q-66 0 -156.5 -29.5t-192.5 -83.5q-144 -76 -208 -150.5t-64 -164.5q0 -58 57 -92.5t154 -34.5q84 0 209 10t164 10q23 0 33 -4t10 -12q0 -35 -70.5 -63t-273.5 -68q-168 -33 -287.5 -82.5t-222.5 -126.5q-99 -74 -150 -140.5t-51 -119.5 q0 -46 85 -64t329 -18q187 0 306.5 10t178.5 31q37 12 71 32.5t38 20.5q6 0 10 -2t4 -4q0 -62 -183 -129.5t-446 -67.5q-214 0 -321 46.5t-107 140.5z" />
<glyph unicode="F" horiz-adv-x="1556" d="M47 1018q0 132 242 231t596 99q262 0 396 -73.5t134 -217.5q0 -51 -13.5 -130.5t-55.5 -262.5h176q5 0 8 -1.5t4 -5.5q0 -24 -4.5 -32t-18.5 -9h-180q-67 -343 -232.5 -489.5t-484.5 -146.5h-221q-45 0 -82.5 -3.5t-60.5 -9.5q23 53 109 84t212 31h228q148 0 199 18.5 t83 69.5q25 40 59 152t77 294h-289q-7 1 -9.5 2t-3.5 5q1 25 5 32.5t18 8.5h293q45 182 72.5 320.5t27.5 178.5q0 50 -89.5 70t-326.5 20q-352 0 -577 -49t-225 -121q0 -59 147 -237q77 -93 121 -150q54 -70 73 -120.5t19 -108.5q0 -16 -4.5 -27.5t-9.5 -11.5q-9 0 -130 150 q-61 76 -100 122q-97 122 -139.5 196t-42.5 122z" />
<glyph unicode="G" horiz-adv-x="1716" d="M41 532q0 102 80 225t221 236q211 170 496 273.5t540 103.5q165 0 262 -51.5t97 -136.5q0 -81 -103 -186.5t-297 -221.5q-192 -115 -394.5 -189.5t-274.5 -74.5q-22 0 -67.5 21t-98.5 57l2 12q23 -3 48 -4.5t50 -1.5q149 0 325 46.5t330 127.5q169 88 269 199.5 t100 206.5q0 72 -78 117.5t-207 45.5q-205 0 -428.5 -82.5t-410.5 -228.5q-160 -125 -242 -248t-82 -237q0 -123 97.5 -185.5t287.5 -62.5q235 0 476 94.5t501 288.5q102 75 138 100t42 25q4 0 6 -3t3 -12q0 -15 -30 -46q-21 -23 -34 -40q-85 -109 -139 -297 q-14 -53 -23 -77q-54 -160 -158 -292.5t-280 -264.5q-98 -74 -187.5 -105t-215.5 -31q-67 0 -206 14.5t-210 14.5q-55 0 -103.5 -6t-97.5 -18q45 60 129.5 85t302.5 25h66q85 0 158 2.5t142 7.5q135 11 208 47t129 113q51 70 141.5 304t173.5 376q-294 -195 -524.5 -281 t-452.5 -86q-229 0 -353 78.5t-124 222.5z" />
<glyph unicode="H" horiz-adv-x="1958" d="M-84 193q0 162 274 285.5t684 123.5q42 0 90 -2.5t144 -9.5q20 63 29.5 135t9.5 166q0 99 -10 193.5t-31 187.5q30 23 61.5 35.5t69.5 17.5q9 -30 12.5 -63t3.5 -84q0 -169 -22.5 -316.5t-69.5 -275.5q77 -7 165 -17t224 -28q81 350 219.5 607t200.5 257q6 0 10 -3t5 -9 q0 -7 -45.5 -79t-79.5 -147q-42 -88 -90 -243.5t-109 -401.5q56 -10 114.5 -15t120.5 -5h17q10 0 16 -4t6 -11q0 -17 -72.5 -38t-154.5 -21q-21 0 -36.5 0.5t-32.5 1.5q-96 -360 -151.5 -484t-113.5 -124q-7 0 -11 0.5t-7 1.5q67 111 129 426q25 129 41 199 q-70 8 -203.5 25.5t-198.5 24.5q-132 -267 -329 -393t-484 -126q-190 0 -292.5 55t-102.5 158zM-37 217q0 -67 89 -97t290 -30q295 0 475 101.5t264 315.5q-81 12 -159.5 17.5t-153.5 5.5q-207 0 -361.5 -28.5t-256.5 -85.5q-86 -48 -136.5 -102t-50.5 -97z" />
<glyph unicode="I" horiz-adv-x="1053" d="M-178 -37q21 54 139 84.5t311 30.5q109 0 231 -7q31 -1 40 -1q166 0 251 432q20 99 31 153q57 266 132 406t202 246q-186 -14 -348 -84t-293 -193q-132 -125 -215.5 -311.5t-83.5 -356.5q0 -33 4 -62.5t10 -49.5h-4q-31 0 -48 59t-17 166q0 258 145 451.5t422 306.5 q122 50 265.5 81.5t217.5 31.5q16 -1 20.5 -3.5t4.5 -9.5q0 -4 -18 -16q-119 -81 -174 -275q-29 -98 -72 -287q-85 -370 -172 -515q-85 -142 -187.5 -203.5t-283.5 -61.5h-393q-27 0 -54.5 -2.5t-62.5 -9.5z" />
<glyph unicode="J" horiz-adv-x="1176" d="M-178 -358q0 178 239 302t644 150q47 155 103 377.5t75 284.5q70 235 149 359.5t197 199.5q-335 0 -550 -126t-312 -380q-29 -74 -83 -119t-98 -45q-2 0 -6 3t-4 5q0 44 65 175t150 225q133 144 342 220.5t469 76.5q18 0 45.5 -2t36.5 -2q12 0 17.5 -3.5t5.5 -11.5 q0 -6 -20 -16q-77 -39 -124 -135q-45 -94 -143 -463.5t-191 -624.5h279q-18 -51 -100.5 -79.5t-214.5 -28.5h-13q-160 -274 -340.5 -421t-353.5 -147q-114 0 -189 65t-75 161zM-84 -326q0 -100 55 -157.5t152 -57.5q138 0 282 138.5t263 388.5q-46 4 -85.5 6t-74.5 2 q-282 0 -437 -84t-155 -236z" />
<glyph unicode="K" horiz-adv-x="1554" d="M-154 6q0 38 94 66t246 28q47 0 129 -3t117 -3q84 0 133 8t82 25q62 31 85 169q6 35 9 54l6 28q157 819 431 970q-494 -29 -686.5 -91.5t-192.5 -187.5q0 -55 18.5 -139t18.5 -111q0 -53 -32.5 -119.5t-47.5 -66.5q-12 0 -26 78q0 2 -1 4q-10 61 -28 163q-37 207 -37 240 q0 105 286.5 181.5t716.5 76.5q37 0 47.5 -4t10.5 -16q0 -2 -51.5 -47t-86.5 -109q-43 -80 -104 -339q-33 -137 -53 -214h6q90 0 183 66.5t276 283.5l10 12q266 316 455 316q29 0 41 -4.5t12 -15.5q0 -2 -102 -73.5t-218 -178.5q-31 -30 -91 -88q-304 -294 -496 -340 q93 -37 156 -87t102 -118q53 -97 111 -394q11 -60 18 -92q32 -162 109 -267q18 -24 18 -32q-1 -8 -3.5 -12t-7.5 -4q-49 0 -132 144t-154 370q-98 305 -157.5 391t-143.5 86h-2q-61 -337 -203.5 -482.5t-409.5 -145.5h-119q-217 0 -279.5 5t-62.5 19z" />
<glyph unicode="L" horiz-adv-x="1292" d="M-313 -14q0 16 44 43t105 45q58 16 202 21t214 59q51 39 99 114.5t93 187.5q12 30 69.5 208t123.5 288q104 177 264 284t311 107q75 0 109.5 -36.5t34.5 -116.5q0 -60 -31 -141t-88 -170q-31 -48 -48 -65t-30 -17q-11 0 -16.5 8t-5.5 24q0 31 51 171.5t51 207.5 q0 48 -19.5 69t-62.5 21q-118 0 -228.5 -107.5t-177.5 -296.5q-8 -24 -26 -76q-180 -524 -498 -724h662q162 0 251 45q9 4 11 4q8 0 12 -3.5t4 -10.5q0 -14 -27.5 -38.5t-72.5 -49.5q-56 -31 -134 -44t-259 -13h-35h-793q-60 0 -119 -5q-14 -2 -16 -2q-11 1 -17.5 3t-6.5 6z " />
<glyph unicode="M" horiz-adv-x="2558" d="M-129 137q0 93 188 204.5t498 197.5q201 56 383 91.5t227 35.5q9 -1 13.5 -4t5.5 -9q0 -21 -158.5 -81.5t-376.5 -110.5q-27 -7 -81 -19q-371 -84 -498 -147q-78 -39 -123 -79t-45 -69q0 -33 100.5 -47t357.5 -14q349 0 491.5 39.5t240.5 136.5q127 128 245 488 q25 78 39 118q76 225 186 371.5t177 146.5q18 0 26.5 -43.5t8.5 -138.5q0 -204 -48.5 -513.5t-48.5 -411.5q0 -41 5 -82t14 -80q73 63 199 385q86 216 143 342q103 224 214 368t171 144q12 0 17 -20t5 -64q0 -158 -71.5 -488.5t-71.5 -504.5q0 -140 23.5 -242t70.5 -172 q13 -21 36.5 -46t23.5 -36q0 -9 -5 -14t-14 -5q-58 0 -145.5 187t-87.5 414q0 170 50 421t50 326q0 13 -2 38t-6 56q-53 -39 -134 -190.5t-186 -403.5l-18 -44q-205 -498 -336 -578q-32 72 -47.5 147t-15.5 160q0 101 43 394t43 485q0 6 -2 38t-3 56q-53 -55 -95.5 -125 t-88.5 -184q-28 -71 -95.5 -260t-113.5 -277q-133 -256 -306.5 -352.5t-526.5 -96.5q-243 0 -394 46.5t-151 115.5z" />
<glyph unicode="N" horiz-adv-x="2271" d="M-131 145q0 91 186 203t486 195q218 60 407 101.5t215 41.5q4 0 9.5 -4t5.5 -6q0 -24 -130 -83.5t-315 -105.5q-66 -16 -186 -43q-330 -76 -438 -125q-94 -41 -150.5 -87t-56.5 -78q0 -33 97 -46.5t361 -13.5q251 0 382 15.5t210 50.5q213 93 378 579l9 29 q110 322 183 457t135 135q33 0 72 -69.5t71 -186.5q41 -148 71 -494t99 -512q101 561 276 917.5t326 356.5q6 0 11 -0.5t10 -1.5q-27 -64 -43.5 -96t-30.5 -45q-4 -5 -19 -16q-145 -121 -251 -341q-121 -249 -228 -708q-13 -57 -20 -86l-3 -12q-23 -93 -46 -93 q-40 0 -98 140t-91 340q-18 114 -41 315q-44 401 -137 485q-67 -90 -150.5 -348.5t-129.5 -374.5q-117 -292 -317.5 -419t-551.5 -127q-256 0 -411.5 45t-155.5 116z" />
<glyph unicode="O" horiz-adv-x="1473" d="M33 467q0 99 36 200.5t105 196.5q42 58 62.5 80.5t29.5 22.5q7 -1 10.5 -4t4.5 -9q0 -8 -24 -47q-116 -191 -116 -372q0 -90 31 -177t88 -159q55 -71 143 -100t254 -29q191 0 298.5 34t193.5 115q89 84 137.5 209t48.5 268q0 278 -138 456.5t-349 178.5 q-144 0 -238 -87.5t-94 -219.5q0 -46 26.5 -156t26.5 -174q0 -90 -22 -153.5t-47 -63.5q-10 0 -14.5 9.5t-4.5 31.5q0 72 -33.5 211.5t-33.5 208.5q0 193 139 315.5t354 122.5q233 0 382 -151t149 -391q0 -185 -72 -356.5t-201 -295.5q-117 -111 -269 -163t-361 -52 q-242 0 -372 130t-130 370z" />
<glyph unicode="P" horiz-adv-x="1763" d="M-68 -12q37 62 129 89t279 27h309q59 0 119 264q24 102 39 164q53 220 110.5 336.5t145.5 202.5q30 29 63.5 47.5t51.5 18.5q3 0 5.5 -2t2.5 -5q0 -9 -29.5 -43.5t-52.5 -70.5q-52 -80 -114 -338q-19 -77 -29 -119q-80 -318 -208.5 -443.5t-355.5 -125.5h-389h-22 q-1 0 -7 -1q-24 -1 -47 -1zM14 846q0 57 70.5 136t187.5 151q171 104 442.5 169.5t549.5 65.5q285 0 436 -115t151 -331q0 -90 -42 -172t-128 -156q-87 -76 -195 -122t-196 -46q-98 0 -198.5 27.5t-100.5 44.5q0 11 59.5 33t112.5 22q37 0 116.5 -18.5t121.5 -18.5 q148 0 239 90.5t91 239.5q0 107 -46.5 207t-123.5 159q-66 51 -164.5 75t-241.5 24q-172 0 -350.5 -32.5t-333.5 -90.5q-155 -59 -249.5 -142.5t-94.5 -156.5q0 -49 77 -188.5t77 -237.5q0 -38 -9 -62t-22 -24q-11 0 -33 55t-49 100l-100 173q-28 49 -41 82.5t-13 58.5z" />
<glyph unicode="Q" horiz-adv-x="1386" d="M-231 -6q0 35 125 78t280 43q61 0 127.5 -6t138.5 -17q185 65 328 153.5t254 207.5q139 147 218 312.5t79 305.5q0 136 -73.5 199t-233.5 63q-133 0 -279 -66t-258 -177q-124 -125 -196 -285t-72 -307q0 -75 22.5 -108.5t73.5 -33.5q96 0 275.5 69t269.5 69q19 0 32 -5 t13 -12q0 -12 -51 -31t-88 -38q-28 -15 -83 -50q-176 -112 -296 -112q-48 0 -79.5 14t-59.5 49q-53 64 -83 152.5t-30 181.5q0 131 56.5 251.5t164.5 219.5q124 115 303 184.5t350 69.5q205 0 324 -101t119 -276q0 -267 -248.5 -512.5t-679.5 -396.5q121 -21 356.5 -84.5 t341.5 -63.5q37 0 75 7q10 2 11 2q7 -1 10.5 -4t4.5 -9q0 -21 -79.5 -44t-172.5 -23q-59 0 -388.5 73.5t-609.5 73.5q-131 0 -250 -25q-16 -3 -20 -3q-10 0 -16 3t-6 9z" />
<glyph unicode="R" horiz-adv-x="1712" d="M-115 188q0 113 182 211t588 201q-77 -115 -248 -149q-39 -8 -59 -13q-200 -48 -314 -111.5t-114 -125.5q0 -55 90 -82t275 -27q171 0 270.5 27t144.5 86q53 68 101 283.5t78 312.5q81 270 275 422.5t456 152.5q145 0 226 -65t81 -183q0 -95 -66.5 -209t-173.5 -198 q-75 -60 -176.5 -87.5t-254.5 -29.5q59 -142 116 -357.5t88 -275.5q36 -69 89.5 -128t53.5 -60q0 -5 -2.5 -7.5t-7.5 -2.5q-9 0 -39.5 20t-66.5 51q-149 126 -222 371q-7 21 -10 31q-9 28 -25 83q-71 241 -122 324q-4 6 -11 17q-40 60 -40 110q0 12 4.5 18t13.5 7 q15 0 60.5 -45t101.5 -117h57q105 0 188 33t150 102q73 75 121.5 187.5t48.5 201.5q0 92 -49 134t-154 42q-211 0 -355 -136t-237 -425q-12 -37 -34 -111q-109 -362 -236 -499q-87 -95 -200.5 -140.5t-262.5 -45.5q-173 0 -276 56t-103 146z" />
<glyph unicode="S" horiz-adv-x="1522" d="M-92 160q0 110 299.5 227t734.5 156q31 -26 69 -47.5t38 -28.5q0 -2 -5.5 -3t-15.5 -1q-2 0 -13 1q-42 3 -81 3q-174 0 -349 -29t-345 -86q-139 -45 -218 -96.5t-79 -93.5q0 -36 92.5 -50t402.5 -14h393q136 0 229.5 2.5t110.5 5.5q33 6 59.5 58.5t26.5 120.5 q0 150 -184 366l-2 2q-42 49 -116 132q-187 205 -187 286q0 101 169.5 201t375.5 100q129 0 198.5 -33.5t69.5 -97.5q0 -50 -35.5 -97.5t-62.5 -47.5q-4 0 -7 4t-3 10t15 38t15 58q0 54 -64.5 85.5t-176.5 31.5q-154 0 -268.5 -62.5t-114.5 -138.5q0 -32 34 -85t113 -140 q3 -3 9 -10q335 -369 335 -553q0 -177 -185 -263.5t-564 -86.5q-352 0 -532.5 44.5t-180.5 131.5z" />
<glyph unicode="T" horiz-adv-x="1526" d="M45 1028q0 180 120 255t419 75q165 0 403 -25t598 -82q25 -4 66 -10q98 -15 98 -31q0 -12 -30 -24q-17 -7 -28 -13q-164 -90 -229 -336l-4 -14q-11 -40 -31 -116q-114 -421 -217 -535q-95 -105 -217.5 -150t-376.5 -45h-530q43 66 142.5 92.5t326.5 26.5h301 q111 0 151.5 3t64.5 10q32 9 53.5 41t50.5 126q28 91 73 261q76 288 135 397q41 75 93.5 126.5t124.5 86.5l-502 82q-236 37 -423.5 58.5t-268.5 21.5q-141 0 -192.5 -49t-51.5 -191q0 -74 13 -164t13 -106q0 -12 -3 -28t-9 -32l-28 -83q-6 -17 -14 -28.5t-15 -11.5 q-9 0 -15.5 12.5t-11.5 37.5q-23 108 -36 205t-13 157z" />
<glyph unicode="U" horiz-adv-x="1878" d="M31 1087q0 57 36.5 96t135.5 87q98 48 227.5 76t249.5 28q144 0 215.5 -49.5t71.5 -148.5q0 -76 -86.5 -321.5t-128.5 -397.5q-26 -92 -40 -181t-14 -165q0 -33 13.5 -42.5t52.5 -9.5q198 0 380 154t267 406q9 26 26 77q82 255 162 361q37 48 78 83.5t56 35.5 q5 -1 7 -2.5t3 -6.5q0 -3 -18 -41q-209 -430 -336 -1032h204q82 0 162 44q19 12 25 12q6 -1 9 -3.5t3 -7.5q0 -18 -39 -49q-5 -4 -8 -6l-9 -7q-124 -102 -270 -102q-75 0 -106 31t-31 105q0 7 1.5 32t4.5 63l8 156q-165 -185 -333.5 -283.5t-321.5 -98.5q-62 0 -80 25 t-18 142q0 112 20 231t58 230q35 104 96 269q88 239 88 297q0 87 -45.5 124t-157.5 37q-187 0 -348.5 -70t-161.5 -143q0 -41 34 -189t34 -235q0 -52 -23 -103.5t-34 -51.5q-13 0 -17 43q-2 29 -6 49q-10 50 -53 206t-43 246z" />
<glyph unicode="V" horiz-adv-x="1493" d="M16 715q0 63 51.5 169.5t131.5 196.5q120 138 288.5 226t305.5 88q136 0 209 -69.5t73 -199.5q0 -57 -15 -152t-44 -220q-12 -52 -34 -143q-62 -258 -62 -337q0 -56 13.5 -101.5t41.5 -82.5q393 502 524 747.5t137 440.5q26 24 57 44.5t70 39.5q3 -19 3.5 -30.5 t0.5 -22.5q0 -89 -39 -198.5t-120 -244.5q-81 -133 -262.5 -358t-237.5 -299q-51 -67 -113.5 -162.5t-79.5 -95.5q-32 0 -75 100t-43 219q0 70 16 166t68 307q43 183 61.5 280t18.5 138q0 95 -46.5 144t-136.5 49q-105 0 -211 -48t-221 -147q-111 -95 -171 -193t-60 -184 q0 -44 19 -87t61 -93l129 -156l8 -6q8 -7 8 -18q0 -8 -13.5 -13.5t-35.5 -5.5q-51 0 -90.5 23.5t-81.5 79.5q-53 67 -78 118t-25 91z" />
<glyph unicode="W" horiz-adv-x="1821" d="M10 889q0 56 58 119.5t176 136.5q142 88 280 140t221 52q101 0 150 -54t49 -167q0 -70 -56.5 -340.5t-56.5 -476.5q0 -54 8.5 -96.5t26.5 -79.5q33 38 96 174.5t160 382.5q103 262 189 391t157 129q39 0 59.5 -37.5t20.5 -107.5q0 -105 -52 -367.5t-52 -406.5 q0 -28 2.5 -62t7.5 -79q41 98 173 317q71 118 108 182q105 186 147 314.5t55 271.5q30 26 61.5 43t67.5 26q-6 -230 -302 -690q-115 -179 -171 -276q-66 -116 -122.5 -243.5t-75.5 -127.5q-29 0 -51.5 94t-22.5 223q0 162 53 423.5t53 344.5q0 26 -7 40t-19 14 q-43 0 -102 -106.5t-230 -532.5q-104 -259 -164 -375.5t-88 -116.5q-37 0 -71.5 128t-34.5 300q0 162 51 406.5t51 333.5q0 83 -27.5 119t-89.5 36q-54 0 -134.5 -31.5t-192.5 -97.5q-164 -96 -205 -145t-41 -117q0 -36 16 -97.5t43 -129.5l64 -156q3 -9 5.5 -19t2.5 -14 q0 -8 -5.5 -14t-12.5 -6q-34 0 -67 19t-52 50q-39 62 -73 174.5t-34 184.5z" />
<glyph unicode="X" horiz-adv-x="1536" d="M-217 -20q0 27 81.5 65.5t188.5 38.5h217q116 0 199.5 27t163.5 90q77 59 176.5 153t222.5 226l-104 317q-84 254 -148.5 334t-171.5 80q-51 0 -136.5 -25.5t-176.5 -68.5q-98 -47 -145.5 -94.5t-47.5 -98.5q0 -69 49.5 -176t49.5 -143q0 -49 -16.5 -94.5t-30.5 -45.5 q-10 0 -17.5 9.5t-23.5 48.5q-60 139 -83.5 211.5t-23.5 113.5q0 75 48 141.5t139 118.5q110 64 255.5 109t229.5 45q145 0 229.5 -106t233.5 -576q135 131 237 282.5t166 317.5q32 27 67.5 47.5t76.5 34.5q-41 -161 -169 -336t-364 -387l105 -348q48 -163 82.5 -248.5 t74.5 -144.5q21 -32 54.5 -72.5t33.5 -54.5q0 -8 -4 -13.5t-10 -5.5q-13 0 -64.5 51t-105.5 121q-73 96 -134.5 227.5t-142.5 378.5q-119 -120 -222.5 -220t-184.5 -173q-106 -97 -183 -130.5t-198 -33.5h-352q-56 0 -99 -5q-6 -1 -8 -1q-5 0 -9.5 4t-4.5 9z" />
<glyph unicode="Y" horiz-adv-x="1782" d="M16 920q0 63 59 128.5t175 133.5q140 81 294 129.5t265 48.5q96 0 144 -40.5t48 -121.5q0 -26 -9 -75t-27 -124l-109 -454l-10 -42q-72 -299 -72 -364q0 -47 11.5 -78.5t27.5 -31.5q24 0 99.5 29t144.5 73q150 96 266 229.5t168 268.5q14 37 54.5 198t103.5 260 q43 68 92.5 113t75.5 45q4 0 7 -4.5t3 -11.5q0 -8 -25 -53.5t-43 -88.5q-40 -96 -106 -362l-6 -27l-82 -335l-5 -20q-121 -499 -311 -687q-120 -119 -277.5 -171t-406.5 -52q-95 0 -133.5 9t-38.5 30q0 2 3 6.5t10 11.5l81 86q38 -13 83 -19t112 -6q271 0 424 64.5 t199 198.5q31 94 75.5 297t73.5 305q-202 -209 -388 -324t-321 -115q-44 0 -67 52.5t-23 154.5q0 55 23 173t86 382l36 144q68 266 68 350q0 49 -16.5 65.5t-71.5 16.5q-87 0 -184.5 -27t-206.5 -82q-117 -58 -182.5 -125t-65.5 -129q0 -42 15.5 -110.5t44.5 -155.5l51 -154 q9 -27 11.5 -37t2.5 -16q0 -10 -6.5 -17t-15.5 -7q-49 0 -80 23.5t-49 76.5l-54 162q-24 72 -34.5 118.5t-10.5 84.5z" />
<glyph unicode="Z" horiz-adv-x="1341" d="M-94 -27q0 30 33.5 59t87.5 46q34 8 107 13t105 9q34 3 74 22t86 54q124 95 338 423q108 164 170 251q159 221 276.5 312.5t262.5 121.5q-115 15 -210 23t-169 8q-285 0 -510 -91.5t-225 -179.5q0 -35 28 -98.5t84 -152.5q14 -22 36 -58q48 -76 48 -88q0 -9 -10.5 -12.5 t-44.5 -3.5q-73 0 -112 62q0 1 -1 1q-71 117 -115 211t-44 127q0 44 51.5 92.5t146.5 94.5q138 66 301.5 101.5t331.5 35.5q205 0 361.5 -25t156.5 -51q0 -15 -49 -24q-4 0 -6 -1q-76 -10 -150 -66.5t-174 -182.5q-88 -112 -227.5 -331t-216.5 -304q-78 -87 -170.5 -155.5 t-204.5 -121.5h629q156 0 255 56q21 12 28 12q6 0 10 -4t4 -11q0 -9 -25 -34.5t-63 -53.5q-61 -43 -125 -62.5t-160 -19.5h-74h-716q-65 0 -112.5 -1t-96.5 -3z" />
<glyph unicode="[" horiz-adv-x="901" d="M-53 -592l547 2048h354l-21 -82h-241l-506 -1886h242l-21 -80h-354z" />
<glyph unicode="\" horiz-adv-x="569" d="M127 1374h80l217 -1564h-80z" />
<glyph unicode="]" horiz-adv-x="901" d="M-35 -592l23 80h241l506 1886h-241l20 82h354l-549 -2048h-354z" />
<glyph unicode="^" horiz-adv-x="2048" d="M412 897l534 565h152l534 -565h-84l-526 465l-530 -465h-80z" />
<glyph unicode="_" d="M0 -403h1024v-80h-1024v80z" />
<glyph unicode="`" d="M264 961q0 28 16.5 44.5t43.5 16.5q49 0 85 -96q18 -47 31 -68q40 -64 109 -113.5t69 -56.5q0 -8 -4.5 -12t-13.5 -4q-16 0 -43 12.5t-106 60.5q-94 57 -140.5 110.5t-46.5 105.5z" />
<glyph unicode="a" horiz-adv-x="825" d="M-33 147q0 82 41 159.5t121 148.5q78 68 157 100.5t169 32.5q74 0 115.5 -36t41.5 -99q0 -39 -33.5 -130.5t-97.5 -226.5h78q87 0 152 57q19 17 26 17q5 0 8 -3t3 -7q0 -28 -77 -99t-141 -71q-60 0 -91 37.5t-44 128.5q-83 -95 -143 -130.5t-127 -35.5q-79 0 -118.5 39 t-39.5 118zM74 186q0 -49 23 -69.5t85 -20.5q66 0 102 15t70 51q58 60 103 159.5t45 161.5q0 38 -16 53t-58 15q-78 0 -139 -34.5t-121 -113.5q-46 -61 -70 -116.5t-24 -100.5z" />
<glyph unicode="b" horiz-adv-x="772" d="M-57 0q61 214 138 543.5t112 441.5q70 233 160 351t198 118q63 0 96 -33t33 -96q0 -68 -39 -131.5t-127 -136.5q-28 -24 -50 -37.5t-32 -13.5q-5 0 -8.5 2.5t-3.5 5.5q0 4 24 25q140 117 140 253q0 50 -22.5 85.5t-49.5 35.5q-46 0 -96.5 -77t-89.5 -212 q-10 -33 -85 -373.5t-151 -652.5h137q126 0 204.5 77.5t78.5 199.5q0 46 -13.5 77.5t-43.5 57.5h-123q-7 0 -12.5 3t-6.5 7q0 35 11.5 51.5t35.5 16.5h375q7 0 13 -3.5t6 -6.5q0 -35 -11.5 -51.5t-35.5 -16.5h-129q1 -8 1.5 -17.5t0.5 -27.5q0 -205 -133 -339t-339 -134 q-47 0 -87 2t-76 6z" />
<glyph unicode="c" horiz-adv-x="631" d="M-39 166q0 166 136 294t319 128q41 0 54 -9.5t13 -39.5q0 -34 -20 -103.5t-53 -142.5q-21 -44 -33.5 -62t-22.5 -18q-4 0 -8 4.5t-4 9.5t6 26q33 107 35 213q-8 2 -26.5 4.5t-28.5 2.5q-48 0 -92.5 -16.5t-88.5 -50.5q-62 -51 -106.5 -125.5t-44.5 -122.5q0 -46 34 -60 t208 -14q102 0 151 8.5t80 28.5q9 6 27.5 23.5t27.5 17.5q5 0 8 -3.5t3 -11.5q0 -14 -22.5 -41t-61.5 -59q-43 -35 -90 -50t-134 -15h-28q-137 0 -187.5 41.5t-50.5 142.5z" />
<glyph unicode="d" horiz-adv-x="819" d="M-47 143q0 70 41 146t119 149q76 73 156.5 111.5t152.5 38.5q17 0 37.5 -4t54.5 -15l88 338q52 205 118.5 335t158.5 208h34q6 0 9.5 -2.5t3.5 -5.5q0 -6 -19 -26q-103 -113 -157 -290q-32 -100 -98 -451t-154 -581q13 -2 27 -3t34 -1q66 0 116 35l50 35q5 0 7.5 -4 t2.5 -11q0 -24 -79.5 -91.5t-135.5 -67.5q-58 0 -85 38t-27 119v19q-111 -111 -168.5 -143.5t-118.5 -32.5q-85 0 -126.5 39t-41.5 118zM80 184q0 -54 21.5 -74t82.5 -20q90 0 165 62t100 153l28 105q6 21 9 39t3 28q0 38 -18.5 54t-64.5 16q-119 0 -222.5 -118t-103.5 -245 z" />
<glyph unicode="e" horiz-adv-x="668" d="M-59 104q0 58 52.5 110.5t158.5 98.5q-53 10 -72 30.5t-19 66.5q0 76 61.5 128t151.5 52q30 0 90.5 -4t90.5 -4h22q27 0 37 -4t10 -13q0 -21 -43.5 -56.5t-79.5 -35.5q-31 0 -89.5 32t-90.5 32q-37 0 -63.5 -23.5t-26.5 -56.5q0 -25 30 -41.5t107 -32.5q31 -7 73 -9 q42 -4 42 -18q0 -32 -33 -50.5t-92 -18.5q-10 0 -23.5 2t-31.5 6q-75 -34 -111.5 -68t-36.5 -69t25.5 -47.5t101.5 -12.5h178q122 0 188 66q16 16 23 16q5 0 8 -3.5t3 -8.5q0 -7 -3 -14.5t-8 -12.5l-45 -47q-55 -60 -91.5 -77t-121.5 -17h-209q-88 0 -125.5 24.5t-37.5 79.5 z" />
<glyph unicode="f" horiz-adv-x="418" d="M-201 -651q89 248 274 1137l4 24h-57q-7 0 -13.5 4.5t-6.5 9.5q0 21 8.5 34.5t23.5 16.5l62 13q109 426 224 646t229 220h65q23 0 29 -6.5t6 -22.5q0 -37 -17 -55t-61 -18h-125q-41 -17 -94 -187t-141 -577h176q11 0 17.5 -3.5t7.5 -9.5q0 -37 -6.5 -51t-32.5 -14h-178 q-119 -568 -187.5 -800t-144.5 -361h-62z" />
<glyph unicode="g" horiz-adv-x="793" d="M-145 -565q0 22 18.5 55t52.5 70l47 49q19 20 28 26.5t17 6.5q4 -1 5 -3t2 -8q0 -16 -37 -60.5t-37 -68.5q0 -35 52.5 -54t150.5 -19q70 0 145 178.5t188 623.5q-106 -128 -186.5 -179.5t-169.5 -51.5q-88 0 -127 36.5t-39 119.5q0 168 153.5 300t348.5 132 q85 0 123.5 -27t38.5 -88q0 -41 -10 -107t-29 -149q-31 -140 -65.5 -263.5t-65.5 -207.5q-76 -208 -184.5 -300.5t-274.5 -92.5q-63 0 -104 24t-41 58zM82 184q0 -51 19 -68.5t83 -17.5q142 0 242 114.5t100 248.5q0 42 -25.5 67t-70.5 25t-106 -26.5t-113 -69.5 q-66 -56 -97.5 -122t-31.5 -151z" />
<glyph unicode="h" horiz-adv-x="803" d="M-57 0q61 213 138.5 542.5t111.5 442.5q70 233 160 351t198 118q63 0 96 -33t33 -96q0 -64 -34 -122t-116 -132q-30 -28 -59 -47.5t-37 -19.5q-6 0 -9 3t-3 7q0 5 25 27q137 118 137 251q0 50 -22.5 85.5t-49.5 35.5q-79 0 -146 -178.5t-204 -849.5q88 104 168.5 155.5 t154.5 51.5q65 0 99 -32.5t34 -92.5q0 -67 -58.5 -152t-194.5 -213h174q88 0 160 60q14 12 18 12q5 0 9.5 -3.5t4.5 -6.5q0 -38 -87.5 -101t-186.5 -63h-199q151 219 196.5 305.5t45.5 136.5q0 39 -20.5 58.5t-59.5 19.5q-71 0 -149.5 -69t-131.5 -181q-40 -86 -86 -210 l-4 -11q-12 -33 -23 -41t-46 -8h-37z" />
<glyph unicode="i" horiz-adv-x="455" d="M-6 131q0 38 19.5 127t56.5 222q1 5 5 18q23 86 54 86h61q21 0 26 -4.5t5 -14.5q0 -2 -6 -18q-26 -64 -47 -135q-6 -20 -18 -61q-47 -171 -101 -265h129q85 0 159 66q19 16 23 16q5 0 10 -4t5 -8q0 -26 -87 -100t-157 -74q-66 0 -101.5 38.5t-35.5 110.5zM178 682v18 q0 119 23 167t78 48q33 0 48 -10t15 -33q0 -33 -43 -83q-4 -4 -6 -7l-88 -100h-27z" />
<glyph unicode="j" horiz-adv-x="358" d="M-233 -647q126 231 212 667q24 121 37 179l82 347q6 23 13.5 30.5t21.5 7.5h78q9 -1 12.5 -3t3.5 -8q0 -5 -14 -50q-55 -176 -94 -357q-4 -19 -13 -58q-127 -577 -272 -755h-67zM178 682v18q0 119 23 167t78 48q33 0 48 -10t15 -33q0 -33 -43 -83q-4 -4 -6 -7l-88 -100 h-27z" />
<glyph unicode="k" horiz-adv-x="784" d="M-72 0q71 199 155.5 535.5t117.5 447.5q72 244 164 361.5t210 117.5q61 0 94 -35.5t33 -101.5q0 -99 -85 -205t-134 -106q-7 0 -10.5 2t-3.5 4q0 3 21 26q120 131 120 240q0 54 -22 94.5t-49 40.5q-52 0 -98 -53t-85 -158q-31 -84 -96 -384t-129 -511q82 145 160 208 t172 63q66 0 101.5 -30.5t35.5 -86.5q0 -81 -60 -138.5t-181 -92.5q15 -32 32 -77q28 -73 133 -73q79 0 144 58q18 16 24 16q5 0 9 -5t4 -10q0 -7 -15.5 -27.5t-38.5 -41.5q-64 -60 -102 -75t-98 -15q-99 0 -155 132q-9 21 -13 31q-19 45 -43.5 87.5t-24.5 48.5 q0 12 24 28.5t40 16.5q15 0 31.5 -17.5t33.5 -50.5q77 23 116.5 63t39.5 95q0 46 -28 75t-73 29q-60 0 -123.5 -59.5t-119.5 -169.5q-41 -80 -85 -188q-45 -109 -79 -109h-64z" />
<glyph unicode="l" horiz-adv-x="551" d="M-80 0q62 120 174 574q57 231 92 364q68 251 166 385.5t213 134.5q58 0 93.5 -36.5t35.5 -94.5q0 -66 -37.5 -129t-115.5 -127q-33 -26 -61 -42.5t-38 -16.5q-5 0 -8.5 2t-3.5 4q0 1 15 13q149 121 149 253q0 54 -24.5 93.5t-53.5 39.5q-42 0 -103.5 -102t-90.5 -238 l-11 -49q-144 -681 -293 -932h244q99 0 154.5 39t56.5 39q2 0 4 -2.5t2 -5.5q0 -13 -23.5 -39t-68.5 -64q-49 -40 -101.5 -56.5t-168.5 -16.5q-69 0 -115.5 2.5t-81.5 7.5z" />
<glyph unicode="m" horiz-adv-x="1149" d="M-74 0q80 203 114 345.5t34 268.5q0 27 -0.5 40t-1.5 23q54 -33 78 -83t24 -131v-35q76 84 138.5 124t117.5 40q57 0 88 -38.5t31 -109.5v-24q85 90 154.5 131t136.5 41q64 0 101.5 -34t37.5 -91q0 -52 -45 -123t-197 -242h144q88 0 162 60q14 12 18 12q5 0 8.5 -3 t3.5 -7q0 -38 -86.5 -101t-185.5 -63h-180q129 190 181 291t52 158q0 41 -20 62t-60 21q-55 0 -135 -74.5t-117 -168.5q-29 -76 -63 -175q-39 -114 -76 -114h-70l97 315q13 43 19.5 78.5t6.5 63.5q0 43 -11 59t-40 16q-61 0 -129.5 -72.5t-118.5 -193.5q-23 -56 -53 -137 q-47 -129 -107 -129h-51z" />
<glyph unicode="n" horiz-adv-x="801" d="M-74 0q81 202 114.5 345t33.5 273v29q50 -27 72 -70.5t22 -113.5q0 -19 -3 -61q-1 -7 -1 -11q97 107 172 154t147 47q65 0 99 -32.5t34 -92.5q0 -67 -58.5 -152t-195.5 -213h175q88 0 160 60q14 12 18 12q5 0 9.5 -3.5t4.5 -6.5q0 -38 -87.5 -101t-186.5 -63h-203 q121 162 182.5 273.5t61.5 168.5q0 38 -18.5 57t-55.5 19q-70 0 -145 -59.5t-115 -149.5q-44 -96 -76 -169t-39 -91q-14 -35 -24.5 -42t-45.5 -7h-51z" />
<glyph unicode="o" horiz-adv-x="786" d="M-45 188q0 75 52 163t134 149q60 44 129 67t144 23q112 0 177.5 -55t65.5 -148q0 -70 -35.5 -146t-97.5 -137q-65 -65 -137.5 -96t-159.5 -31q-126 0 -199 57t-73 154zM78 233q0 -76 40.5 -110.5t133.5 -34.5h217q39 63 57.5 119.5t18.5 111.5q0 100 -55 163t-140 63 q-104 0 -188 -96.5t-84 -215.5z" />
<glyph unicode="p" horiz-adv-x="807" d="M-203 -645q53 164 141 575t168 641q65 182 141 303t118 121q5 0 9.5 -5t4.5 -13q0 -2 -12 -21q-129 -197 -203 -522q65 81 126 116.5t136 35.5q98 0 155.5 -48.5t57.5 -129.5q0 -88 -60 -164t-191 -154q28 -3 51 -4.5t40 -1.5q108 0 183 67q16 15 22 15q7 0 11.5 -4.5 t4.5 -9.5q0 -8 -14 -27t-39 -43q-50 -52 -98.5 -72t-118.5 -20h-186q-61 0 -99 -9q-6 -1 -8 -1q-6 0 -10 3.5t-4 8.5q0 16 44 39.5t120 46.5q98 29 162.5 112.5t64.5 176.5q0 76 -38 118.5t-107 42.5q-57 0 -111.5 -41.5t-89.5 -111.5q-38 -77 -87.5 -301t-76.5 -328 q-56 -211 -99.5 -304t-84.5 -93q-6 0 -10.5 1t-12.5 5z" />
<glyph unicode="q" horiz-adv-x="797" d="M-49 137q0 166 153.5 307.5t344.5 141.5q92 0 145 -45t53 -123q0 -91 -136 -419q-25 -60 -38 -91q-89 -221 -116 -316t-27 -163q0 -25 2 -46.5t6 -41.5h-37q-23 52 -34 100.5t-11 95.5q0 122 115 405q60 149 90 234q-141 -124 -209.5 -155t-149.5 -31q-80 0 -115.5 34.5 t-35.5 112.5zM70 176q0 -49 25.5 -68.5t88.5 -19.5q138 0 250.5 111t112.5 243q0 52 -31 80.5t-88 28.5q-140 0 -249 -115t-109 -260z" />
<glyph unicode="r" horiz-adv-x="623" d="M-16 297q0 5 30.5 62.5t34.5 121.5h-12q-25 0 -38 16t-13 48q0 39 23.5 65.5t58.5 26.5q25 0 39 -14.5t14 -40.5h354q-132 -115 -181.5 -203.5t-49.5 -198.5q0 -53 18.5 -72.5t67.5 -19.5q54 0 113.5 35t64.5 35q3 0 5.5 -3.5t2.5 -9.5q0 -27 -87.5 -95t-164.5 -68 q-62 0 -93.5 38t-31.5 113q0 81 40 156.5t151 191.5h-217q-28 -79 -66 -133.5t-57 -54.5q-3 0 -4.5 1t-1.5 3z" />
<glyph unicode="s" horiz-adv-x="561" d="M-61 0l32 82q4 11 14 15.5t29 4.5h92q74 0 121 41.5t47 89.5q0 34 -61 94t-72 124q-41 -45 -81.5 -102.5t-55.5 -57.5q-3 0 -5.5 3.5t-2.5 8.5q0 18 52 100q18 29 28 46q80 127 123 162.5t94 35.5q23 0 35 -10t12 -29q0 -33 -49 -56q-39 -18 -62 -36q5 -33 62 -96 t57 -125q0 -58 -32 -108t-91 -85h60q79 0 131 37t61 37q5 0 7.5 -1.5t2.5 -4.5q0 -30 -90 -100t-168 -70h-290z" />
<glyph unicode="t" horiz-adv-x="522" d="M-47 0q39 114 105 393q18 77 28 117h-61q-11 0 -18 3.5t-7 8.5q0 39 5.5 52.5t31.5 13.5h61q45 156 86.5 256.5t91.5 175.5h37q7 0 10.5 -2t4.5 -6q0 -3 -10 -29q-67 -175 -105 -395h199q10 0 17 -3.5t7 -9.5q0 -37 -6 -51t-33 -14h-200q-24 -132 -62 -230.5t-96 -179.5 h197q102 0 167 64q15 14 21 14q9 0 13.5 -2.5t4.5 -7.5q0 -41 -91.5 -104.5t-196.5 -63.5h-201z" />
<glyph unicode="u" horiz-adv-x="815" d="M-31 180q0 65 52.5 179.5t52.5 172.5q0 41 -18 81l-17 40q0 5 4 7.5t12 3.5q24 0 61.5 -65.5t37.5 -127.5q0 -53 -33 -153t-33 -142q0 -44 18.5 -61t65.5 -17q132 0 218.5 134.5t86.5 349.5v6l84 -1q1 -20 1.5 -42t0.5 -58q0 -91 -19.5 -175.5t-76.5 -213.5h96 q60 0 139 57q21 15 25 15q5 0 8.5 -4t3.5 -8q0 -23 -84.5 -94.5t-146.5 -71.5q-52 0 -79 34.5t-48 141.5q-85 -98 -141.5 -137t-108.5 -39q-69 0 -115.5 53.5t-46.5 134.5z" />
<glyph unicode="v" horiz-adv-x="770" d="M-18 330q0 88 37 173t75 85h107q-65 -94 -97 -176t-32 -152q0 -102 23 -135t126 -33h98q64 0 131.5 94.5t67.5 192.5q0 40 -11 71.5t-34 59.5h-133q-7 0 -12.5 3t-5.5 7q0 35 11 51.5t36 16.5h374q7 0 13 -3.5t6 -6.5q0 -36 -10.5 -52t-34.5 -16h-117v-23 q0 -110 -42 -200.5t-134 -180.5q-86 -81 -124.5 -98.5t-98.5 -17.5q-37 0 -60.5 11.5t-50.5 45.5q-55 70 -81.5 140t-26.5 143z" />
<glyph unicode="w" horiz-adv-x="1014" d="M-6 227q0 108 62 234.5t104 126.5h108q-89 -96 -132.5 -191t-43.5 -194q0 -62 17 -83.5t71 -21.5q27 0 44.5 10t45.5 46l41 53q36 45 57 91t21 77q0 10 -6 39.5t-6 48.5q0 56 25.5 96t74.5 61q-5 -31 -7.5 -53t-2.5 -37q0 -40 31.5 -136t31.5 -142t-14.5 -82.5 t-48.5 -71.5h80q108 0 166.5 65t58.5 183q0 50 -12.5 89.5t-38.5 74.5h-107q-6 0 -12 3.5t-6 6.5q0 35 11.5 51.5t35.5 16.5h340q8 -1 13 -4t5 -6q0 -35 -11 -51.5t-36 -16.5h-104q-2 -240 -118 -378t-314 -138h-33q32 56 45.5 95.5t13.5 72.5q0 27 -8.5 57.5t-25.5 65.5 q-102 -149 -178 -220t-134 -71q-44 0 -74 66t-30 167z" />
<glyph unicode="x" horiz-adv-x="758" d="M-113 4q0 8 114.5 98.5t211.5 206.5q-36 175 -168 270q-18 13 -18 17q0 7 13 13.5t30 6.5q72 0 134.5 -61t96.5 -166l162 152q27 25 59 36t80 11h62q4 0 8 -4t4 -9q0 -2 -2.5 -9t-6.5 -14l-16 -30q-10 -18 -23 -25.5t-46 -7.5h-31q-91 0 -128.5 -29.5t-100.5 -133.5 q7 -40 12 -87t10 -142q29 -4 52 -5.5t38 -1.5q126 0 189 54q16 14 24 14q7 0 9.5 -2t2.5 -6q0 -34 -75.5 -97t-151.5 -63q-86 0 -122.5 42t-84.5 204q-132 -119 -217 -182.5t-112 -63.5q-4 0 -6.5 4.5t-2.5 9.5z" />
<glyph unicode="y" horiz-adv-x="717" d="M-223 -575q0 19 18.5 50.5t57.5 75.5l40 49q13 16 25.5 24.5t22.5 8.5q3 0 4 -2t2 -8q0 -17 -36 -60.5t-36 -68.5q0 -37 52 -57.5t149 -20.5q72 0 150 188.5t180 608.5q-87 -106 -162 -159.5t-138 -53.5q-62 0 -103.5 37.5t-41.5 93.5q0 72 58.5 207t58.5 188 q0 38 -19.5 81.5t-19.5 45.5q0 5 4 7.5t12 3.5q23 0 65 -66.5t42 -124.5q0 -50 -40 -157.5t-40 -159.5q0 -30 16 -43t54 -13q97 0 148 41.5t103 137.5q25 45 36 108t14 201h96v-27q0 -166 -36 -355.5t-105 -387.5q-96 -274 -203.5 -375.5t-280.5 -101.5q-64 0 -105.5 24 t-41.5 60z" />
<glyph unicode="z" horiz-adv-x="668" d="M-106 8q0 44 102 88q56 23 80 39q45 30 164.5 163t212.5 214q-34 -8 -68.5 -12t-77.5 -4q-34 0 -82.5 3t-62.5 3q-67 0 -136 -26q-20 -7 -24 -7t-7 3.5t-3 8.5q0 30 72.5 73.5t156.5 43.5q41 0 116.5 -5t108.5 -5q64 0 111 17q8 3 10 3q4 0 8.5 -4t4.5 -8 q0 -8 -44.5 -53.5t-80.5 -87.5q-23 -28 -66 -82q-177 -224 -311 -273h301q98 0 167 53q19 15 27 15q5 0 8 -3t3 -7q-1 -10 -6.5 -19t-16.5 -18l-51 -43q-46 -42 -83.5 -60t-86.5 -18h-33h-334q-11 0 -31.5 -3t-29.5 -3q-8 0 -13 4t-5 10z" />
<glyph unicode="{" d="M176 608v56q169 15 227 72.5t58 211.5v221q0 200 80 273.5t293 73.5h10v-47q-153 -2 -207.5 -55t-54.5 -210v-147q0 -225 -64.5 -308t-238.5 -114q174 -30 238.5 -112.5t64.5 -309.5v-147q0 -157 54.5 -210t207.5 -55v-45h-10q-213 0 -293 73t-80 273v222 q0 154 -59.5 212.5t-225.5 71.5z" />
<glyph unicode="|" d="M467 -483v2048h90v-2048h-90z" />
<glyph unicode="}" d="M178 -199q154 2 209 55t55 210v147q0 226 64 308t239 114q-174 31 -238.5 114t-64.5 308v147q0 156 -55 209.5t-209 55.5v47h10q214 0 294.5 -74t80.5 -273v-221q0 -155 58 -212t227 -72v-56q-166 -13 -225.5 -71.5t-59.5 -212.5v-222q0 -198 -80.5 -272t-294.5 -74h-10 v45z" />
<glyph unicode="~" horiz-adv-x="1706" d="M178 481v92q105 74 201 110t186 36q100 0 271 -61q12 -5 19 -7q8 -3 27 -10q168 -61 261 -61q83 0 175 37.5t212 121.5v-92q-106 -74 -202 -110.5t-185 -36.5q-99 0 -266 61q-16 6 -22 8q-12 4 -33 12q-167 60 -257 60q-83 0 -175 -37.5t-212 -122.5z" />
<glyph unicode="&#xa1;" horiz-adv-x="451" d="M4 43q0 32 65 171t101 249q49 153 79 301t30 203q0 11 5.5 17.5t14.5 6.5t12.5 -4t3.5 -14q0 -3 -1 -5.5l-1 -2.5q0 -88 -20.5 -265.5t-56.5 -359.5q-38 -193 -77 -271.5t-96 -78.5q-27 0 -43 14t-16 39zM260 1284q0 44 25 72t63 28q31 0 49.5 -18.5t18.5 -50.5 q0 -44 -25.5 -72.5t-62.5 -28.5q-31 0 -49.5 19.5t-18.5 50.5z" />
<glyph unicode="&#xa2;" horiz-adv-x="664" d="M-20 166q0 129 86.5 240.5t226.5 158.5l53 228h45l-49 -215q34 5 60.5 7.5t48.5 2.5q39 0 52 -9t13 -34q0 -41 -17.5 -99.5t-51.5 -133.5q-3 -7 -8 -18q-35 -81 -52 -81q-5 0 -8.5 4.5t-3.5 11.5q0 5 7 29q34 107 35 209q-9 1 -28 3.5t-29 2.5q-14 0 -23 -0.5t-17 -1.5 l-90 -387q9 -1 22 -1.5t35 -0.5q159 0 239 68q14 12 19 12q4 0 6 -3.5t2 -11.5q0 -47 -92.5 -108.5t-212.5 -61.5q-18 0 -27 0.5t-18 1.5l-82 -348h-45l81 351q-90 2 -133.5 47.5t-43.5 136.5zM16 158q0 -42 25.5 -57t95.5 -15q9 0 23.5 -1t21.5 -1l86 379 q-102 -39 -177 -134.5t-75 -170.5z" />
<glyph unicode="&#xa3;" horiz-adv-x="858" d="M-4 0q77 121 119.5 242.5t56.5 257.5h-111q-13 0 -17.5 3.5t-4.5 12.5q0 27 8 39t27 12h110q15 139 42 226t71 135q53 59 165 100t224 41q74 0 100.5 -27.5t26.5 -123.5q0 -54 -28 -90.5t-58 -36.5q-13 0 -19 14t-6 47v18q0 90 -21.5 121t-94.5 31q-148 0 -214 -95.5 t-85 -359.5h227q13 0 17.5 -3t5.5 -13q0 -27 -8.5 -39t-26.5 -12h-228q-8 -119 -41.5 -215t-97.5 -183h346q125 0 215 63q22 15 29 15t9.5 -2t2.5 -6q0 -11 -11.5 -26t-37.5 -37l-15 -13q-111 -96 -253 -96h-424z" />
<glyph unicode="&#xa4;" horiz-adv-x="1241" d="M94 418l207 205q-45 57 -68.5 123.5t-23.5 138.5q0 71 23.5 137.5t68.5 124.5l-207 205l58 59l206 -207q60 48 125 71t138 23q72 0 138 -23.5t126 -70.5l205 207l59 -59l-207 -205q45 -58 68.5 -124.5t23.5 -137.5q0 -73 -23 -138.5t-69 -123.5l207 -205l-59 -60 l-205 207q-58 -45 -125 -68.5t-139 -23.5q-74 0 -139 23t-124 69l-206 -207zM291 887q0 -138 97 -235t235 -97q137 0 234 97t97 235q0 137 -96.5 233.5t-234.5 96.5t-235 -97t-97 -233z" />
<glyph unicode="&#xa5;" horiz-adv-x="1034" d="M-72 238l15 53h180l51 143h-188l14 53h197q27 91 35 123.5t8 48.5q0 46 -21.5 96t-21.5 52q0 5 5.5 9.5t12.5 4.5q23 0 68 -79.5t45 -139.5q0 -49 -52.5 -184t-52.5 -201q0 -42 21 -59t71 -17q156 0 255.5 157.5t99.5 410.5v26h96v-39q0 -52 -3.5 -104t-10.5 -104l233 -1 l-14 -53h-228l-26 -143h211l-15 -53h-206q-102 -423 -225.5 -586.5t-327.5 -163.5q-63 0 -103.5 24.5t-40.5 59.5q0 20 19 52t55 75l39 47q15 19 26 27t21 8q2 0 4 -3t2 -7q0 -16 -37 -60t-37 -69q0 -37 52 -57.5t147 -20.5q70 0 143 173.5t162 553.5q-93 -126 -178.5 -190 t-157.5 -64q-71 0 -115 44t-44 116q0 9 0.5 19.5t1.5 21.5h-185z" />
<glyph unicode="&#xa6;" d="M467 -350v758h90v-758h-90zM467 674v758h90v-758h-90z" />
<glyph unicode="&#xa7;" d="M33 -211q0 33 19.5 52.5t51.5 19.5q21 -1 30 -35q3 -11 5 -18q29 -105 74 -150t119 -45q80 0 124 48t44 136q0 82 -69 263l-9 24l-96 250q-41 106 -63.5 202t-22.5 160q0 125 59 201.5t188 118.5q-10 35 -15 72.5t-5 78.5q0 114 78.5 189.5t199.5 75.5q98 0 172 -59 t74 -130q0 -25 -18.5 -44t-44.5 -19t-42 45q-1 3 -1 4q-27 77 -68.5 114t-101.5 37q-81 0 -124.5 -40.5t-43.5 -116.5q0 -35 12 -81.5t53 -154.5l115 -293q44 -111 67 -208.5t23 -168.5q0 -122 -64 -203t-182 -106q12 -36 17.5 -68t5.5 -63q0 -139 -79 -225t-208 -86 q-113 0 -193.5 67.5t-80.5 155.5zM326 774q0 -55 15 -119.5t48 -152.5l171 -453q80 9 125.5 61t45.5 136q0 95 -69 281q-9 25 -13 37l-149 409q-87 -17 -130.5 -67t-43.5 -132z" />
<glyph unicode="&#xa8;" d="M246 819q0 37 25 63.5t61 26.5q30 0 46.5 -18t16.5 -51q0 -38 -24 -63t-60 -25q-31 0 -48 17.5t-17 49.5zM580 819q0 37 24.5 63.5t59.5 26.5q30 0 46.5 -18t16.5 -51q0 -38 -23 -63t-59 -25q-31 0 -48 17.5t-17 49.5z" />
<glyph unicode="&#xa9;" horiz-adv-x="1683" d="M152 678q0 138 51 263t149 224q97 98 225 151.5t267 53.5q134 0 261 -52.5t224 -148.5q96 -95 149.5 -225t53.5 -266q0 -135 -53 -261t-152 -227q-97 -98 -221.5 -150t-263.5 -52q-138 0 -262.5 51.5t-225.5 150.5q-99 100 -150.5 224t-51.5 264zM229 678 q0 -126 46.5 -238.5t134.5 -199.5q88 -89 198 -135t234 -46q126 0 236.5 46.5t195.5 134.5q88 91 135 203.5t47 234.5q0 123 -48 240.5t-132 201.5q-85 85 -198 131.5t-234 46.5q-123 0 -235.5 -47t-198.5 -135q-88 -89 -134.5 -201.5t-46.5 -236.5zM432 664 q0 184 113.5 310t277.5 126q71 0 145 -34t85 -34q28 0 44.5 16t20.5 45l31 1v-308h-37q-32 136 -104 205.5t-181 69.5q-127 0 -192.5 -95.5t-65.5 -281.5q0 -190 70 -286.5t207 -96.5q90 0 161 42.5t126 129.5l30 -20q-55 -102 -140.5 -154.5t-195.5 -52.5 q-164 0 -279.5 122t-115.5 296z" />
<glyph unicode="&#xaa;" horiz-adv-x="618" d="M-25 1075q0 58 30.5 112t90.5 103t119.5 71.5t126.5 22.5q54 0 85.5 -25t31.5 -69q0 -28 -25.5 -93t-73.5 -157h60q65 0 113 40q14 12 20 12q4 -1 6 -2.5t2 -4.5q0 -19 -57.5 -68.5t-106.5 -49.5q-44 0 -67 26t-33 88q-62 -65 -106.5 -89.5t-96.5 -24.5q-59 0 -89 27 t-30 81zM55 1104q0 -35 18 -49.5t64 -14.5q50 0 76.5 10.5t52.5 34.5q43 43 77 113t34 113q0 26 -12 36.5t-43 10.5q-60 0 -106 -24t-89 -79q-35 -42 -53.5 -81t-18.5 -70z" />
<glyph unicode="&#xab;" horiz-adv-x="786" d="M49 291q107 76 204.5 165t106.5 89q8 0 12.5 -4.5t4.5 -12.5q0 -22 -39 -71.5t-162 -175.5q52 -91 81.5 -155t29.5 -85q0 -8 -4 -12t-13 -4q-8 0 -76 92t-145 174zM324 291q107 76 204.5 165t106.5 89q8 0 12 -4.5t4 -12.5q0 -23 -41 -75t-157 -172q50 -89 79 -153.5 t29 -86.5q0 -8 -4 -12t-12 -4q-9 0 -76.5 92t-144.5 174z" />
<glyph unicode="&#xac;" horiz-adv-x="1706" d="M254 774v82h1198v-502h-78v420h-1120z" />
<glyph unicode="&#xad;" horiz-adv-x="563" d="M-12 236l37 98h376l-36 -98h-377z" />
<glyph unicode="&#xae;" horiz-adv-x="1683" d="M152 678q0 138 51 263t149 224q97 98 225 151.5t267 53.5q134 0 261 -52.5t224 -148.5q96 -95 149.5 -225t53.5 -266q0 -135 -53 -261t-152 -227q-97 -98 -221.5 -150t-263.5 -52q-138 0 -262.5 51.5t-225.5 150.5q-99 100 -150.5 224t-51.5 264zM229 678 q0 -126 46.5 -238.5t134.5 -199.5q88 -89 198 -135t234 -46q126 0 236.5 46.5t195.5 134.5q88 91 135 203.5t47 234.5q0 123 -48 240.5t-132 201.5q-85 85 -198 131.5t-234 46.5q-123 0 -235.5 -47t-198.5 -135q-88 -89 -134.5 -201.5t-46.5 -236.5zM469 293v38q79 3 108 25 t29 78v512q0 57 -30 80t-107 25v36h391q147 0 231.5 -52.5t84.5 -143.5q0 -75 -70 -122.5t-221 -76.5q92 -30 139.5 -78.5t71.5 -136.5q5 -20 12 -59q15 -88 55 -88q41 0 60 30.5t20 97.5l37 1v-8q0 -88 -37.5 -132.5t-112.5 -44.5q-46 0 -79 18.5t-45 51.5 q-16 39 -17.5 113.5t-9.5 99.5q-23 66 -76 96.5t-147 30.5q-6 0 -19 -1t-20 -1v-248q0 -56 29 -78t108 -25v-38h-385zM717 717q12 -1 26.5 -1.5t40.5 -0.5q128 0 195.5 45t67.5 131q0 76 -58.5 121t-159.5 45q-54 0 -83 -20t-29 -56v-264z" />
<glyph unicode="&#xaf;" d="M203 797v6l12 51q3 12 10.5 17t22.5 6h497q13 0 21 -6t8 -15v-6l-12 -51q-3 -12 -11.5 -18.5t-21.5 -6.5h-498q-13 0 -20.5 6.5t-7.5 16.5z" />
<glyph unicode="&#xb0;" horiz-adv-x="674" d="M63 1176q0 114 80.5 194t194.5 80q112 0 192 -80.5t80 -193.5q0 -114 -80 -193.5t-194 -79.5q-115 0 -194 79t-79 194zM125 1176q0 -89 62.5 -151t150.5 -62t150.5 62t62.5 151q0 88 -62.5 150.5t-150.5 62.5q-89 0 -151 -62t-62 -151z" />
<glyph unicode="&#xb1;" horiz-adv-x="1706" d="M254 59v82h1198v-82h-1198zM254 727v80h559v354h80v-354h559v-80h-559v-352h-80v352h-559z" />
<glyph unicode="&#xb2;" horiz-adv-x="520" d="M-35 295v4q0 27 47 76t133 112q21 15 59 42q156 109 156 155q0 25 -27 38t-77 13q-62 0 -100.5 -27.5t-38.5 -72.5v-8q0 -17 -8.5 -23t-28.5 -6q-23 0 -31 5t-8 20q0 55 63.5 95t157.5 40q81 0 127.5 -25.5t46.5 -68.5q0 -37 -33.5 -70.5t-121.5 -79.5q-15 -8 -42 -22 q-178 -94 -214 -138h227q95 0 142 28q9 5 12 5q8 0 10 -1t2 -3q0 -22 -66.5 -55t-148.5 -33h-238z" />
<glyph unicode="&#xb3;" horiz-adv-x="547" d="M-98 158q21 32 42 43.5t54 11.5h108q116 0 175 38.5t59 113.5q0 50 -47 69t-201 19h-43q28 51 101 55q28 2 43 4q80 15 134 62t54 96q0 31 -22.5 45t-73.5 14q-65 0 -108.5 -24t-47.5 -62q-1 -8 -1 -18q-2 -35 -46 -35q-18 0 -24.5 4.5t-6.5 15.5q0 66 65.5 103t182.5 37 q79 0 120.5 -22t41.5 -64t-56 -82t-165 -76q84 -9 127 -38t43 -79q0 -90 -124.5 -161.5t-303.5 -71.5q-33 0 -50 0.5t-30 1.5z" />
<glyph unicode="&#xb4;" d="M371 686q0 10 64.5 54.5t105.5 103.5q17 25 39 80q37 96 86 96q27 0 43 -16.5t16 -45.5q0 -50 -48.5 -105.5t-140.5 -109.5q-7 -4 -24 -14q-98 -57 -123 -57q-9 0 -13.5 3.5t-4.5 10.5z" />
<glyph unicode="&#xb5;" horiz-adv-x="1051" d="M-49 -354q0 39 59.5 287t98.5 432l108 520h119l-111 -518q-4 -20 -6 -41.5t-2 -46.5q0 -95 46.5 -153t121.5 -58q99 0 170 85t109 250l110 482h119l-117 -527q-13 -59 -19.5 -104.5t-6.5 -73.5q0 -44 20 -69t55 -25q43 0 77.5 27t53.5 75q13 30 30 79q25 71 44 71 q12 0 19.5 -8.5t7.5 -22.5q0 -30 -15.5 -82.5t-37.5 -93.5q-40 -72 -93.5 -108.5t-117.5 -36.5q-70 0 -107 45t-37 129q0 5 1 16t1 17q-43 -108 -110 -160.5t-160 -52.5t-149 53.5t-70 156.5q-21 -131 -41 -330q-28 -276 -101 -276q-29 0 -49 18t-20 44z" />
<glyph unicode="&#xb6;" d="M90 1130q0 157 108.5 253t286.5 96h447v-64h-129v-1415h-70v1415h-192v-1415h-70v782q-175 8 -278 102.5t-103 245.5z" />
<glyph unicode="&#xb7;" horiz-adv-x="418" d="M80 371q0 30 21.5 50.5t52.5 20.5q30 0 50.5 -20.5t20.5 -50.5q0 -31 -20.5 -52.5t-50.5 -21.5q-31 0 -52.5 21.5t-21.5 52.5z" />
<glyph unicode="&#xb8;" d="M53 -293q0 7 5 12t12 5q10 0 86 -23t139 -23q62 0 100.5 27.5t38.5 69.5q0 39 -25.5 57t-80.5 18q-11 0 -25 -2t-29 -6l-38 17l96 147h45l-66 -104q5 0 16 2q44 6 58 6q71 0 108 -33t37 -94q0 -74 -56 -119t-150 -45q-103 0 -187 32.5t-84 55.5z" />
<glyph unicode="&#xb9;" horiz-adv-x="315" d="M2 281q62 74 95 217t61 198q-42 -17 -81.5 -28.5t-74.5 -15.5v30q90 10 163.5 45t74.5 35q4 0 8 -3t4 -7q0 -3 -6 -13q-34 -59 -53 -164q-29 -142 -66.5 -202.5t-106.5 -106.5z" />
<glyph unicode="&#xba;" horiz-adv-x="590" d="M-35 1104q0 52 39.5 114t101.5 105q46 31 98 47t107 16q85 0 134 -38.5t49 -104.5q0 -49 -27 -102.5t-74 -93.5q-47 -46 -102 -68.5t-121 -22.5q-95 0 -150 40t-55 108zM59 1137q0 -55 30 -79t99 -24h164q29 44 43.5 84t14.5 78q0 69 -42 113.5t-106 44.5 q-78 0 -140.5 -67t-62.5 -150z" />
<glyph unicode="&#xbb;" horiz-adv-x="786" d="M-37 39q0 23 38.5 71.5t160.5 174.5q-51 89 -81 154.5t-30 86.5q0 9 4 13t13 4q8 0 77 -92.5t146 -174.5q-107 -76 -205.5 -164.5t-108.5 -88.5q-7 0 -10.5 4t-3.5 12zM238 39q0 23 38 71.5t160 174.5q-49 87 -78.5 153t-29.5 88q0 9 3.5 13t10.5 4q9 0 77.5 -92.5 t145.5 -174.5q-107 -76 -204.5 -164.5t-106.5 -88.5q-8 0 -12 4t-4 12z" />
<glyph unicode="&#xbc;" horiz-adv-x="1370" d="M-47 -227q0 10 60.5 73t107.5 131q136 200 293 553q41 93 61 136q92 194 207 332.5t152 138.5q8 0 14 -5.5t6 -11.5q0 -7 -36 -48.5t-64 -80.5q-115 -157 -293 -535q-39 -84 -60 -126q-118 -246 -250.5 -410t-179.5 -164q-8 1 -13 6t-5 11zM63 442q77 112 120 316t77 280 q-80 -38 -194 -61h-3v45q118 14 213.5 64.5t96.5 50.5q6 0 10 -5t4 -12q0 -3 -7 -17q-43 -83 -69 -233q-34 -200 -84 -288.5t-141 -155.5zM510 64q11 120 103 252t231 223q86 56 184 96.5t127 40.5q7 0 10.5 -2t3.5 -6q0 -3 -8 -20q-94 -176 -145 -494h16q88 0 158 54 q20 15 27 15q2 0 3.5 -1.5t2.5 -4.5q0 -43 -69.5 -98.5t-149.5 -55.5h-5q-28 -110 -84.5 -190t-93.5 -80q-7 0 -11.5 3.5t-4.5 8.5q0 7 16 30q69 100 90 228zM618 154h306q33 179 67 286t78 172q-173 -65 -284.5 -178.5t-166.5 -279.5z" />
<glyph unicode="&#xbd;" horiz-adv-x="1370" d="M-45 -227q0 10 61.5 73t108.5 131q136 200 293 553q41 93 61 136q92 194 207 332.5t152 138.5q8 0 14 -5.5t6 -11.5q0 -7 -36 -48.5t-64 -80.5q-118 -161 -301 -549q-35 -75 -54 -112q-118 -246 -249.5 -410t-178.5 -164q-7 0 -13.5 5.5t-6.5 11.5zM84 442 q77 112 120 316t77 280q-81 -38 -194 -61h-3v45q118 14 213 64.5t96 50.5q6 0 10.5 -5t4.5 -12q0 -3 -7 -17q-43 -83 -69 -233q-35 -203 -84 -290.5t-139 -153.5zM545 0v4q0 40 63.5 111.5t175.5 156.5q32 25 90 67q197 146 197 208q0 38 -33.5 56t-103.5 18t-120 -28.5 t-62 -73.5q-4 -15 -4 -39q0 -52 -50 -52q-29 0 -40 7.5t-11 29.5q0 81 85.5 136.5t219.5 55.5q99 0 160.5 -38t61.5 -99q0 -50 -43.5 -95.5t-161.5 -111.5q-167 -92 -237.5 -139t-100.5 -84h297q129 0 192 42q11 7 15 7q11 0 13.5 -1.5t2.5 -4.5q0 -33 -89 -83t-200 -50 h-317z" />
<glyph unicode="&#xbe;" horiz-adv-x="1489" d="M-70 342q32 50 59.5 66t82.5 16q13 0 52 -1t64 -1q141 0 215 49.5t74 142.5q0 63 -56 87t-237 24h-67q29 74 122 81q37 3 58 7q103 19 166 78t63 133q0 40 -23 56t-81 16q-89 0 -142.5 -29.5t-56.5 -79.5q0 -9 -1 -24q-1 -47 -64 -48q-21 0 -29 5.5t-8 19.5 q0 89 81.5 138.5t229.5 49.5q100 0 153.5 -30t53.5 -86q0 -30 -26 -63.5t-74 -65.5q-34 -22 -161 -77l-7 -3q101 -12 151.5 -50.5t50.5 -103.5q0 -119 -157.5 -215t-384.5 -96q-28 0 -94 4h-7zM209 -227q0 10 60.5 73t107.5 131q136 200 293 553q41 93 61 136 q92 194 207 332.5t152 138.5q8 0 14 -5.5t6 -11.5q0 -7 -36 -48.5t-64 -80.5q-115 -157 -293 -535q-39 -84 -60 -126q-118 -246 -250.5 -410t-179.5 -164q-8 1 -13 6t-5 11zM709 64q11 121 102.5 252.5t230.5 222.5q86 56 185 96.5t129 40.5q6 0 9 -2t3 -6q0 -3 -9 -20 q-91 -177 -142 -494h16q88 0 157 54q18 15 25 15q2 0 4 -1.5t2 -4.5q0 -43 -69.5 -98.5t-149.5 -55.5h-4q-28 -111 -83.5 -190.5t-92.5 -79.5q-7 0 -11.5 3.5t-4.5 8.5q0 7 15 31q67 100 89 227zM817 154h307q34 179 68 286t78 172q-174 -65 -286.5 -179t-166.5 -279z" />
<glyph unicode="&#xbf;" horiz-adv-x="786" d="M33 264q0 79 34 147.5t117 153.5q47 49 135 125t119 113q53 61 69 124.5t17 63.5q14 0 27.5 -28.5t13.5 -67.5q0 -120 -226 -337l-32 -30l-16 -15q-176 -169 -176 -298q0 -91 56.5 -139.5t162.5 -48.5q97 0 155 45.5t58 124.5q0 32 -2 69t-2 41q0 39 27 93.5t44 54.5 q6 0 12.5 -7t6.5 -14q0 -6 -1 -17t-1 -16q0 -2 1 -13t1 -19l10 -144q0 -4 1 -17t1 -22q0 -79 -89 -137.5t-214 -58.5q-139 0 -224 75.5t-85 198.5zM510 1278q0 43 25 71.5t63 28.5q31 0 49.5 -18.5t18.5 -50.5q0 -44 -25.5 -72.5t-62.5 -28.5q-31 0 -49.5 19.5t-18.5 50.5z " />
<glyph unicode="&#xc0;" horiz-adv-x="1962" d="M-78 188q0 175 278.5 311t684.5 136q40 0 91.5 -2.5t123.5 -7.5q169 418 353 573.5t495 155.5q12 -1 18 -4.5t6 -10.5q0 -4 -35.5 -29t-68.5 -79q-49 -80 -96 -244.5t-95 -425.5q73 -11 134.5 -16.5t99.5 -5.5q12 0 23 1l3 1q12 0 16.5 -2.5t4.5 -8.5q0 -26 -58.5 -41.5 t-158.5 -15.5q-27 0 -46 0.5t-38 1.5q-92 -323 -173 -496.5t-141 -173.5q-8 1 -11 1.5t-6 2.5q64 126 114 290t94 394q-39 6 -115 17q-229 34 -319 43q-127 -305 -311 -441.5t-467 -136.5q-190 0 -295 56.5t-105 156.5zM-23 223q0 -71 83.5 -107t246.5 -36q291 0 469 112 t287 363q-89 8 -152 11t-118 3q-340 0 -578 -107.5t-238 -238.5zM1137 625q143 -14 238.5 -25t176.5 -22q52 265 137.5 451.5t202.5 293.5q-237 -15 -422.5 -186.5t-332.5 -511.5zM1587 1727q0 28 16.5 44.5t43.5 16.5q49 0 85 -96q18 -47 31 -68q40 -64 109 -113.5 t69 -56.5q0 -8 -4.5 -12t-13.5 -4q-16 0 -43 12.5t-106 60.5q-94 57 -140.5 110.5t-46.5 105.5z" />
<glyph unicode="&#xc1;" horiz-adv-x="1962" d="M-78 188q0 175 278.5 311t684.5 136q40 0 91.5 -2.5t123.5 -7.5q169 418 353 573.5t495 155.5q12 -1 18 -4.5t6 -10.5q0 -4 -35.5 -29t-68.5 -79q-49 -80 -96 -244.5t-95 -425.5q73 -11 134.5 -16.5t99.5 -5.5q12 0 23 1l3 1q12 0 16.5 -2.5t4.5 -8.5q0 -26 -58.5 -41.5 t-158.5 -15.5q-27 0 -46 0.5t-38 1.5q-92 -323 -173 -496.5t-141 -173.5q-8 1 -11 1.5t-6 2.5q64 126 114 290t94 394q-39 6 -115 17q-229 34 -319 43q-127 -305 -311 -441.5t-467 -136.5q-190 0 -295 56.5t-105 156.5zM-23 223q0 -71 83.5 -107t246.5 -36q291 0 469 112 t287 363q-89 8 -152 11t-118 3q-340 0 -578 -107.5t-238 -238.5zM1137 625q143 -14 238.5 -25t176.5 -22q52 265 137.5 451.5t202.5 293.5q-237 -15 -422.5 -186.5t-332.5 -511.5zM1694 1452q0 10 64.5 54.5t105.5 103.5q17 25 39 80q37 96 86 96q27 0 43 -16.5t16 -45.5 q0 -50 -48.5 -105.5t-140.5 -109.5q-7 -4 -24 -14q-98 -57 -123 -57q-9 0 -13.5 3.5t-4.5 10.5z" />
<glyph unicode="&#xc2;" horiz-adv-x="1962" d="M-78 188q0 175 278.5 311t684.5 136q40 0 91.5 -2.5t123.5 -7.5q169 418 353 573.5t495 155.5q12 -1 18 -4.5t6 -10.5q0 -4 -35.5 -29t-68.5 -79q-49 -80 -96 -244.5t-95 -425.5q73 -11 134.5 -16.5t99.5 -5.5q12 0 23 1l3 1q12 0 16.5 -2.5t4.5 -8.5q0 -26 -58.5 -41.5 t-158.5 -15.5q-27 0 -46 0.5t-38 1.5q-92 -323 -173 -496.5t-141 -173.5q-8 1 -11 1.5t-6 2.5q64 126 114 290t94 394q-39 6 -115 17q-229 34 -319 43q-127 -305 -311 -441.5t-467 -136.5q-190 0 -295 56.5t-105 156.5zM-23 223q0 -71 83.5 -107t246.5 -36q291 0 469 112 t287 363q-89 8 -152 11t-118 3q-340 0 -578 -107.5t-238 -238.5zM1137 625q143 -14 238.5 -25t176.5 -22q52 265 137.5 451.5t202.5 293.5q-237 -15 -422.5 -186.5t-332.5 -511.5zM1511 1450q0 13 58 57t102 86q72 70 130 145t67 75q14 0 23.5 -42t25.5 -81 q30 -75 76.5 -151.5t46.5 -82.5q0 -7 -6 -12.5t-15 -5.5q-19 0 -65.5 51.5t-116.5 148.5q-95 -87 -183.5 -142.5t-123.5 -55.5q-8 0 -13 2.5t-6 7.5z" />
<glyph unicode="&#xc3;" horiz-adv-x="1962" d="M-78 188q0 175 278.5 311t684.5 136q40 0 91.5 -2.5t123.5 -7.5q169 418 353 573.5t495 155.5q12 -1 18 -4.5t6 -10.5q0 -4 -35.5 -29t-68.5 -79q-49 -80 -96 -244.5t-95 -425.5q73 -11 134.5 -16.5t99.5 -5.5q12 0 23 1l3 1q12 0 16.5 -2.5t4.5 -8.5q0 -26 -58.5 -41.5 t-158.5 -15.5q-27 0 -46 0.5t-38 1.5q-92 -323 -173 -496.5t-141 -173.5q-8 1 -11 1.5t-6 2.5q64 126 114 290t94 394q-39 6 -115 17q-229 34 -319 43q-127 -305 -311 -441.5t-467 -136.5q-190 0 -295 56.5t-105 156.5zM-23 223q0 -71 83.5 -107t246.5 -36q291 0 469 112 t287 363q-89 8 -152 11t-118 3q-340 0 -578 -107.5t-238 -238.5zM1137 625q143 -14 238.5 -25t176.5 -22q52 265 137.5 451.5t202.5 293.5q-237 -15 -422.5 -186.5t-332.5 -511.5zM1499 1495q0 62 53 130.5t127 68.5q50 0 148.5 -38t144.5 -38q59 0 91.5 48t41.5 48t15 -4 t6 -10q0 -61 -53.5 -130t-126.5 -69q-53 0 -151.5 39t-141.5 39q-59 0 -91.5 -48t-41.5 -48q-10 0 -15.5 3t-5.5 9z" />
<glyph unicode="&#xc4;" horiz-adv-x="1962" d="M-78 188q0 175 278.5 311t684.5 136q40 0 91.5 -2.5t123.5 -7.5q169 418 353 573.5t495 155.5q12 -1 18 -4.5t6 -10.5q0 -4 -35.5 -29t-68.5 -79q-49 -80 -96 -244.5t-95 -425.5q73 -11 134.5 -16.5t99.5 -5.5q12 0 23 1l3 1q12 0 16.5 -2.5t4.5 -8.5q0 -26 -58.5 -41.5 t-158.5 -15.5q-27 0 -46 0.5t-38 1.5q-92 -323 -173 -496.5t-141 -173.5q-8 1 -11 1.5t-6 2.5q64 126 114 290t94 394q-39 6 -115 17q-229 34 -319 43q-127 -305 -311 -441.5t-467 -136.5q-190 0 -295 56.5t-105 156.5zM-23 223q0 -71 83.5 -107t246.5 -36q291 0 469 112 t287 363q-89 8 -152 11t-118 3q-340 0 -578 -107.5t-238 -238.5zM1137 625q143 -14 238.5 -25t176.5 -22q52 265 137.5 451.5t202.5 293.5q-237 -15 -422.5 -186.5t-332.5 -511.5zM1569 1585q0 37 25 63.5t61 26.5q30 0 46.5 -18t16.5 -51q0 -38 -24 -63t-60 -25 q-31 0 -48 17.5t-17 49.5zM1903 1585q0 37 24.5 63.5t59.5 26.5q30 0 46.5 -18t16.5 -51q0 -38 -23 -63t-59 -25q-31 0 -48 17.5t-17 49.5z" />
<glyph unicode="&#xc5;" horiz-adv-x="1962" d="M-78 188q0 175 278.5 311t684.5 136q40 0 91.5 -2.5t123.5 -7.5q169 418 353 573.5t495 155.5q12 -1 18 -4.5t6 -10.5q0 -4 -35.5 -29t-68.5 -79q-49 -80 -96 -244.5t-95 -425.5q73 -11 134.5 -16.5t99.5 -5.5q12 0 23 1l3 1q12 0 16.5 -2.5t4.5 -8.5q0 -26 -58.5 -41.5 t-158.5 -15.5q-27 0 -46 0.5t-38 1.5q-92 -323 -173 -496.5t-141 -173.5q-8 1 -11 1.5t-6 2.5q64 126 114 290t94 394q-39 6 -115 17q-229 34 -319 43q-127 -305 -311 -441.5t-467 -136.5q-190 0 -295 56.5t-105 156.5zM-23 223q0 -71 83.5 -107t246.5 -36q291 0 469 112 t287 363q-89 8 -152 11t-118 3q-340 0 -578 -107.5t-238 -238.5zM1137 625q143 -14 238.5 -25t176.5 -22q52 265 137.5 451.5t202.5 293.5q-237 -15 -422.5 -186.5t-332.5 -511.5zM1665 1587q0 72 51 122t123 50q74 0 124 -49.5t50 -122.5q0 -72 -51 -124t-123 -52t-123 52 t-51 124zM1718 1587q0 -52 34.5 -87.5t86.5 -35.5q51 0 86 35.5t35 87.5q0 51 -35 86t-86 35q-52 0 -86.5 -35t-34.5 -86z" />
<glyph unicode="&#xc6;" horiz-adv-x="2660" d="M-78 188q0 175 278.5 311t684.5 136q40 0 91.5 -2.5t123.5 -7.5q168 417 352.5 572t495.5 155q12 0 18 -3t6 -10q0 -17 -58 -19q-47 -2 -78 -5q-208 -22 -384.5 -196t-314.5 -494q146 -14 347 -38q8 -1 11 -1l3 13q66 267 138 267q9 0 13.5 -0.5t7.5 -1.5 q-40 -118 -71.5 -249t-59.5 -291q92 132 221.5 225t318.5 166q-150 51 -217 103.5t-67 117.5q0 70 72 136.5t219 131.5q152 68 313 108t270 40q46 0 72.5 -18t26.5 -48q0 -17 -9.5 -37t-27.5 -43l-76 -94q-13 -16 -30 -26t-38 -15l-59 -14q-3 -1 -6 -1.5t-8 -0.5 q-26 0 -35.5 2t-9.5 8t6 15.5t18 21.5l86 94q23 26 31 41.5t8 30.5q0 21 -15 30t-55 9q-65 0 -155.5 -29.5t-194.5 -85.5q-147 -78 -209.5 -150.5t-62.5 -162.5q0 -58 57.5 -92.5t155.5 -34.5q84 0 208 10t163 10q23 0 34 -4t11 -12q0 -34 -70.5 -62.5t-276.5 -68.5 q-167 -33 -286.5 -82.5t-222.5 -126.5q-99 -74 -150 -140.5t-51 -119.5q0 -46 82 -64t315 -18q211 0 326 9.5t178 31.5q34 12 68.5 32.5t37.5 20.5q10 0 12 -1t3 -5q0 -59 -183.5 -128t-447.5 -69q-176 0 -280 33t-134 98q-7 -18 -21 -53q-90 -229 -153 -229q-7 0 -11 0.5 t-7 1.5q64 123 114.5 288.5t94.5 399.5q-120 17 -213.5 29.5t-165.5 19.5q-127 -305 -311 -441.5t-467 -136.5q-190 0 -295 56.5t-105 156.5zM-23 223q0 -71 83.5 -107t246.5 -36q291 0 469 112t287 363q-89 8 -152 11t-118 3q-340 0 -578 -107.5t-238 -238.5z" />
<glyph unicode="&#xc7;" horiz-adv-x="1126" d="M41 311q0 146 103 329t290 368q158 156 325.5 250t280.5 94q66 0 105 -23.5t39 -62.5q0 -94 -59 -225.5t-201 -350.5q-52 -80 -68 -100.5t-25 -20.5q-3 0 -6.5 3t-3.5 6q0 9 31 58q21 32 33 52q95 156 145.5 276t50.5 189q0 67 -30.5 102t-89.5 35q-97 0 -239.5 -111 t-281.5 -298q-53 -72 -100.5 -152t-103.5 -194q-74 -149 -97.5 -218.5t-23.5 -119.5q0 -70 91 -97.5t331 -27.5q308 0 472 68q14 5 17 5t5.5 -3.5t2.5 -8.5q0 -35 -162.5 -98.5t-351.5 -63.5q-246 0 -362.5 83t-116.5 257zM184 -293q0 7 5 12t12 5q10 0 86 -23t139 -23 q62 0 100.5 27.5t38.5 69.5q0 39 -25.5 57t-80.5 18q-11 0 -25 -2t-29 -6l-38 17l96 147h45l-66 -104q5 0 16 2q44 6 58 6q71 0 108 -33t37 -94q0 -74 -56 -119t-150 -45q-103 0 -187 32.5t-84 55.5z" />
<glyph unicode="&#xc8;" horiz-adv-x="1221" d="M6 152q0 129 175.5 295.5t441.5 267.5q-148 49 -216.5 102.5t-68.5 118.5q0 70 72 136.5t219 131.5q152 67 312 106.5t269 39.5q47 0 74 -16t27 -42q0 -20 -19 -54t-69 -101q-25 -34 -42 -46t-53 -20l-71 -16q-17 -4 -22 -5t-7 -1q-7 0 -13.5 5.5t-6.5 10.5q0 4 75.5 81 t75.5 132q0 15 -16.5 22t-52.5 7q-66 0 -156.5 -29.5t-192.5 -83.5q-144 -76 -208 -150.5t-64 -164.5q0 -58 57 -92.5t154 -34.5q84 0 209 10t164 10q23 0 33 -4t10 -12q0 -35 -70.5 -63t-273.5 -68q-168 -33 -287.5 -82.5t-222.5 -126.5q-99 -74 -150 -140.5t-51 -119.5 q0 -46 85 -64t329 -18q187 0 306.5 10t178.5 31q37 12 71 32.5t38 20.5q6 0 10 -2t4 -4q0 -62 -183 -129.5t-446 -67.5q-214 0 -321 46.5t-107 140.5zM813 1727q0 28 16.5 44.5t43.5 16.5q49 0 85 -96q18 -47 31 -68q40 -64 109 -113.5t69 -56.5q0 -8 -4.5 -12t-13.5 -4 q-16 0 -43 12.5t-106 60.5q-94 57 -140.5 110.5t-46.5 105.5z" />
<glyph unicode="&#xc9;" horiz-adv-x="1221" d="M6 152q0 129 175.5 295.5t441.5 267.5q-148 49 -216.5 102.5t-68.5 118.5q0 70 72 136.5t219 131.5q152 67 312 106.5t269 39.5q47 0 74 -16t27 -42q0 -20 -19 -54t-69 -101q-25 -34 -42 -46t-53 -20l-71 -16q-17 -4 -22 -5t-7 -1q-7 0 -13.5 5.5t-6.5 10.5q0 4 75.5 81 t75.5 132q0 15 -16.5 22t-52.5 7q-66 0 -156.5 -29.5t-192.5 -83.5q-144 -76 -208 -150.5t-64 -164.5q0 -58 57 -92.5t154 -34.5q84 0 209 10t164 10q23 0 33 -4t10 -12q0 -35 -70.5 -63t-273.5 -68q-168 -33 -287.5 -82.5t-222.5 -126.5q-99 -74 -150 -140.5t-51 -119.5 q0 -46 85 -64t329 -18q187 0 306.5 10t178.5 31q37 12 71 32.5t38 20.5q6 0 10 -2t4 -4q0 -62 -183 -129.5t-446 -67.5q-214 0 -321 46.5t-107 140.5zM920 1452q0 10 64.5 54.5t105.5 103.5q17 25 39 80q37 96 86 96q27 0 43 -16.5t16 -45.5q0 -50 -48.5 -105.5 t-140.5 -109.5q-7 -4 -24 -14q-98 -57 -123 -57q-9 0 -13.5 3.5t-4.5 10.5z" />
<glyph unicode="&#xca;" horiz-adv-x="1221" d="M6 152q0 129 175.5 295.5t441.5 267.5q-148 49 -216.5 102.5t-68.5 118.5q0 70 72 136.5t219 131.5q152 67 312 106.5t269 39.5q47 0 74 -16t27 -42q0 -20 -19 -54t-69 -101q-25 -34 -42 -46t-53 -20l-71 -16q-17 -4 -22 -5t-7 -1q-7 0 -13.5 5.5t-6.5 10.5q0 4 75.5 81 t75.5 132q0 15 -16.5 22t-52.5 7q-66 0 -156.5 -29.5t-192.5 -83.5q-144 -76 -208 -150.5t-64 -164.5q0 -58 57 -92.5t154 -34.5q84 0 209 10t164 10q23 0 33 -4t10 -12q0 -35 -70.5 -63t-273.5 -68q-168 -33 -287.5 -82.5t-222.5 -126.5q-99 -74 -150 -140.5t-51 -119.5 q0 -46 85 -64t329 -18q187 0 306.5 10t178.5 31q37 12 71 32.5t38 20.5q6 0 10 -2t4 -4q0 -62 -183 -129.5t-446 -67.5q-214 0 -321 46.5t-107 140.5zM737 1450q0 13 58 57t102 86q72 70 130 145t67 75q14 0 23.5 -42t25.5 -81q30 -75 76.5 -151.5t46.5 -82.5q0 -7 -6 -12.5 t-15 -5.5q-19 0 -65.5 51.5t-116.5 148.5q-95 -87 -183.5 -142.5t-123.5 -55.5q-8 0 -13 2.5t-6 7.5z" />
<glyph unicode="&#xcb;" horiz-adv-x="1221" d="M6 152q0 129 175.5 295.5t441.5 267.5q-148 49 -216.5 102.5t-68.5 118.5q0 70 72 136.5t219 131.5q152 67 312 106.5t269 39.5q47 0 74 -16t27 -42q0 -20 -19 -54t-69 -101q-25 -34 -42 -46t-53 -20l-71 -16q-17 -4 -22 -5t-7 -1q-7 0 -13.5 5.5t-6.5 10.5q0 4 75.5 81 t75.5 132q0 15 -16.5 22t-52.5 7q-66 0 -156.5 -29.5t-192.5 -83.5q-144 -76 -208 -150.5t-64 -164.5q0 -58 57 -92.5t154 -34.5q84 0 209 10t164 10q23 0 33 -4t10 -12q0 -35 -70.5 -63t-273.5 -68q-168 -33 -287.5 -82.5t-222.5 -126.5q-99 -74 -150 -140.5t-51 -119.5 q0 -46 85 -64t329 -18q187 0 306.5 10t178.5 31q37 12 71 32.5t38 20.5q6 0 10 -2t4 -4q0 -62 -183 -129.5t-446 -67.5q-214 0 -321 46.5t-107 140.5zM795 1585q0 37 25 63.5t61 26.5q30 0 46.5 -18t16.5 -51q0 -38 -24 -63t-60 -25q-31 0 -48 17.5t-17 49.5zM1129 1585 q0 37 24.5 63.5t59.5 26.5q30 0 46.5 -18t16.5 -51q0 -38 -23 -63t-59 -25q-31 0 -48 17.5t-17 49.5z" />
<glyph unicode="&#xcc;" horiz-adv-x="1053" d="M-178 -37q21 54 139 84.5t311 30.5q109 0 231 -7q31 -1 40 -1q166 0 251 432q20 99 31 153q57 266 132 406t202 246q-186 -14 -348 -84t-293 -193q-132 -125 -215.5 -311.5t-83.5 -356.5q0 -33 4 -62.5t10 -49.5h-4q-31 0 -48 59t-17 166q0 258 145 451.5t422 306.5 q122 50 265.5 81.5t217.5 31.5q16 -1 20.5 -3.5t4.5 -9.5q0 -4 -18 -16q-119 -81 -174 -275q-29 -98 -72 -287q-85 -370 -172 -515q-85 -142 -187.5 -203.5t-283.5 -61.5h-393q-27 0 -54.5 -2.5t-62.5 -9.5zM848 1727q0 28 16.5 44.5t43.5 16.5q49 0 85 -96q18 -47 31 -68 q40 -64 109 -113.5t69 -56.5q0 -8 -4.5 -12t-13.5 -4q-16 0 -43 12.5t-106 60.5q-94 57 -140.5 110.5t-46.5 105.5z" />
<glyph unicode="&#xcd;" horiz-adv-x="1053" d="M-178 -37q21 54 139 84.5t311 30.5q109 0 231 -7q31 -1 40 -1q166 0 251 432q20 99 31 153q57 266 132 406t202 246q-186 -14 -348 -84t-293 -193q-132 -125 -215.5 -311.5t-83.5 -356.5q0 -33 4 -62.5t10 -49.5h-4q-31 0 -48 59t-17 166q0 258 145 451.5t422 306.5 q122 50 265.5 81.5t217.5 31.5q16 -1 20.5 -3.5t4.5 -9.5q0 -4 -18 -16q-119 -81 -174 -275q-29 -98 -72 -287q-85 -370 -172 -515q-85 -142 -187.5 -203.5t-283.5 -61.5h-393q-27 0 -54.5 -2.5t-62.5 -9.5zM955 1452q0 10 64.5 54.5t105.5 103.5q17 25 39 80q37 96 86 96 q27 0 43 -16.5t16 -45.5q0 -50 -48.5 -105.5t-140.5 -109.5q-7 -4 -24 -14q-98 -57 -123 -57q-9 0 -13.5 3.5t-4.5 10.5z" />
<glyph unicode="&#xce;" horiz-adv-x="1053" d="M-178 -37q21 54 139 84.5t311 30.5q109 0 231 -7q31 -1 40 -1q166 0 251 432q20 99 31 153q57 266 132 406t202 246q-186 -14 -348 -84t-293 -193q-132 -125 -215.5 -311.5t-83.5 -356.5q0 -33 4 -62.5t10 -49.5h-4q-31 0 -48 59t-17 166q0 258 145 451.5t422 306.5 q122 50 265.5 81.5t217.5 31.5q16 -1 20.5 -3.5t4.5 -9.5q0 -4 -18 -16q-119 -81 -174 -275q-29 -98 -72 -287q-85 -370 -172 -515q-85 -142 -187.5 -203.5t-283.5 -61.5h-393q-27 0 -54.5 -2.5t-62.5 -9.5zM772 1450q0 13 58 57t102 86q72 70 130 145t67 75q14 0 23.5 -42 t25.5 -81q30 -75 76.5 -151.5t46.5 -82.5q0 -7 -6 -12.5t-15 -5.5q-19 0 -65.5 51.5t-116.5 148.5q-95 -87 -183.5 -142.5t-123.5 -55.5q-8 0 -13 2.5t-6 7.5z" />
<glyph unicode="&#xcf;" horiz-adv-x="1053" d="M-178 -37q21 54 139 84.5t311 30.5q109 0 231 -7q31 -1 40 -1q166 0 251 432q20 99 31 153q57 266 132 406t202 246q-186 -14 -348 -84t-293 -193q-132 -125 -215.5 -311.5t-83.5 -356.5q0 -33 4 -62.5t10 -49.5h-4q-31 0 -48 59t-17 166q0 258 145 451.5t422 306.5 q122 50 265.5 81.5t217.5 31.5q16 -1 20.5 -3.5t4.5 -9.5q0 -4 -18 -16q-119 -81 -174 -275q-29 -98 -72 -287q-85 -370 -172 -515q-85 -142 -187.5 -203.5t-283.5 -61.5h-393q-27 0 -54.5 -2.5t-62.5 -9.5zM830 1585q0 37 25 63.5t61 26.5q30 0 46.5 -18t16.5 -51 q0 -38 -24 -63t-60 -25q-31 0 -48 17.5t-17 49.5zM1164 1585q0 37 24.5 63.5t59.5 26.5q30 0 46.5 -18t16.5 -51q0 -38 -23 -63t-59 -25q-31 0 -48 17.5t-17 49.5z" />
<glyph unicode="&#xd0;" horiz-adv-x="1919" d="M25 -51q0 56 88.5 97t228.5 48q11 1 30 1q98 3 158 67q43 45 74 105.5t55 144.5h-313q-22 0 -27 3.5t-6 16.5q0 31 9 43t38 12h322q42 199 81 286t101 147q43 41 86 66.5t68 25.5q8 0 10 -1.5t2 -4.5q0 -5 -40.5 -39.5t-71.5 -94.5q-43 -81 -83 -270q-16 -76 -26 -115 h414q16 0 22 -3.5t6 -14.5q0 -33 -8 -45t-31 -12h-426q-35 -117 -105 -194t-181 -122q280 -9 445 -12.5t259 -3.5q283 0 393.5 46t110.5 157q0 74 -91.5 215t-270.5 346q-231 264 -443 391t-420 127q-133 0 -200.5 -65.5t-67.5 -194.5q0 -64 12.5 -161.5t38.5 -233.5 l-63 -107q-8 -15 -14 -20.5t-15 -6.5q-12 0 -26 69q0 4 -1 5q-23 114 -37 220.5t-14 168.5q0 181 92 270t279 89q196 0 413 -90t410 -252q219 -183 362.5 -384t143.5 -307q0 -81 -54 -157t-151 -131q-96 -56 -214 -80.5t-320 -24.5q-33 0 -104.5 1t-110.5 1h-639 q-38 0 -82 -6.5t-96 -19.5v4z" />
<glyph unicode="&#xd1;" horiz-adv-x="2271" d="M-131 145q0 91 186 203t486 195q218 60 407 101.5t215 41.5q4 0 9.5 -4t5.5 -6q0 -24 -130 -83.5t-315 -105.5q-66 -16 -186 -43q-330 -76 -438 -125q-94 -41 -150.5 -87t-56.5 -78q0 -33 97 -46.5t361 -13.5q251 0 382 15.5t210 50.5q213 93 378 579l9 29 q110 322 183 457t135 135q33 0 72 -69.5t71 -186.5q41 -148 71 -494t99 -512q101 561 276 917.5t326 356.5q6 0 11 -0.5t10 -1.5q-27 -64 -43.5 -96t-30.5 -45q-4 -5 -19 -16q-145 -121 -251 -341q-121 -249 -228 -708q-13 -57 -20 -86l-3 -12q-23 -93 -46 -93 q-40 0 -98 140t-91 340q-18 114 -41 315q-44 401 -137 485q-67 -90 -150.5 -348.5t-129.5 -374.5q-117 -292 -317.5 -419t-551.5 -127q-256 0 -411.5 45t-155.5 116zM1757 1495q0 62 53 130.5t127 68.5q50 0 148.5 -38t144.5 -38q59 0 91.5 48t41.5 48t15 -4t6 -10 q0 -61 -53.5 -130t-126.5 -69q-53 0 -151.5 39t-141.5 39q-59 0 -91.5 -48t-41.5 -48q-10 0 -15.5 3t-5.5 9z" />
<glyph unicode="&#xd2;" horiz-adv-x="1473" d="M33 467q0 99 36 200.5t105 196.5q42 58 62.5 80.5t29.5 22.5q7 -1 10.5 -4t4.5 -9q0 -8 -24 -47q-116 -191 -116 -372q0 -90 31 -177t88 -159q55 -71 143 -100t254 -29q191 0 298.5 34t193.5 115q89 84 137.5 209t48.5 268q0 278 -138 456.5t-349 178.5 q-144 0 -238 -87.5t-94 -219.5q0 -46 26.5 -156t26.5 -174q0 -90 -22 -153.5t-47 -63.5q-10 0 -14.5 9.5t-4.5 31.5q0 72 -33.5 211.5t-33.5 208.5q0 193 139 315.5t354 122.5q233 0 382 -151t149 -391q0 -185 -72 -356.5t-201 -295.5q-117 -111 -269 -163t-361 -52 q-242 0 -372 130t-130 370zM702 1727q0 28 16.5 44.5t43.5 16.5q49 0 85 -96q18 -47 31 -68q40 -64 109 -113.5t69 -56.5q0 -8 -4.5 -12t-13.5 -4q-16 0 -43 12.5t-106 60.5q-94 57 -140.5 110.5t-46.5 105.5z" />
<glyph unicode="&#xd3;" horiz-adv-x="1473" d="M33 467q0 99 36 200.5t105 196.5q42 58 62.5 80.5t29.5 22.5q7 -1 10.5 -4t4.5 -9q0 -8 -24 -47q-116 -191 -116 -372q0 -90 31 -177t88 -159q55 -71 143 -100t254 -29q191 0 298.5 34t193.5 115q89 84 137.5 209t48.5 268q0 278 -138 456.5t-349 178.5 q-144 0 -238 -87.5t-94 -219.5q0 -46 26.5 -156t26.5 -174q0 -90 -22 -153.5t-47 -63.5q-10 0 -14.5 9.5t-4.5 31.5q0 72 -33.5 211.5t-33.5 208.5q0 193 139 315.5t354 122.5q233 0 382 -151t149 -391q0 -185 -72 -356.5t-201 -295.5q-117 -111 -269 -163t-361 -52 q-242 0 -372 130t-130 370zM809 1452q0 10 64.5 54.5t105.5 103.5q17 25 39 80q37 96 86 96q27 0 43 -16.5t16 -45.5q0 -50 -48.5 -105.5t-140.5 -109.5q-7 -4 -24 -14q-98 -57 -123 -57q-9 0 -13.5 3.5t-4.5 10.5z" />
<glyph unicode="&#xd4;" horiz-adv-x="1473" d="M33 467q0 99 36 200.5t105 196.5q42 58 62.5 80.5t29.5 22.5q7 -1 10.5 -4t4.5 -9q0 -8 -24 -47q-116 -191 -116 -372q0 -90 31 -177t88 -159q55 -71 143 -100t254 -29q191 0 298.5 34t193.5 115q89 84 137.5 209t48.5 268q0 278 -138 456.5t-349 178.5 q-144 0 -238 -87.5t-94 -219.5q0 -46 26.5 -156t26.5 -174q0 -90 -22 -153.5t-47 -63.5q-10 0 -14.5 9.5t-4.5 31.5q0 72 -33.5 211.5t-33.5 208.5q0 193 139 315.5t354 122.5q233 0 382 -151t149 -391q0 -185 -72 -356.5t-201 -295.5q-117 -111 -269 -163t-361 -52 q-242 0 -372 130t-130 370zM626 1450q0 13 58 57t102 86q72 70 130 145t67 75q14 0 23.5 -42t25.5 -81q30 -75 76.5 -151.5t46.5 -82.5q0 -7 -6 -12.5t-15 -5.5q-19 0 -65.5 51.5t-116.5 148.5q-95 -87 -183.5 -142.5t-123.5 -55.5q-8 0 -13 2.5t-6 7.5z" />
<glyph unicode="&#xd5;" horiz-adv-x="1473" d="M33 467q0 99 36 200.5t105 196.5q42 58 62.5 80.5t29.5 22.5q7 -1 10.5 -4t4.5 -9q0 -8 -24 -47q-116 -191 -116 -372q0 -90 31 -177t88 -159q55 -71 143 -100t254 -29q191 0 298.5 34t193.5 115q89 84 137.5 209t48.5 268q0 278 -138 456.5t-349 178.5 q-144 0 -238 -87.5t-94 -219.5q0 -46 26.5 -156t26.5 -174q0 -90 -22 -153.5t-47 -63.5q-10 0 -14.5 9.5t-4.5 31.5q0 72 -33.5 211.5t-33.5 208.5q0 193 139 315.5t354 122.5q233 0 382 -151t149 -391q0 -185 -72 -356.5t-201 -295.5q-117 -111 -269 -163t-361 -52 q-242 0 -372 130t-130 370zM614 1495q0 62 53 130.5t127 68.5q50 0 148.5 -38t144.5 -38q59 0 91.5 48t41.5 48t15 -4t6 -10q0 -61 -53.5 -130t-126.5 -69q-53 0 -151.5 39t-141.5 39q-59 0 -91.5 -48t-41.5 -48q-10 0 -15.5 3t-5.5 9z" />
<glyph unicode="&#xd6;" horiz-adv-x="1473" d="M33 467q0 99 36 200.5t105 196.5q42 58 62.5 80.5t29.5 22.5q7 -1 10.5 -4t4.5 -9q0 -8 -24 -47q-116 -191 -116 -372q0 -90 31 -177t88 -159q55 -71 143 -100t254 -29q191 0 298.5 34t193.5 115q89 84 137.5 209t48.5 268q0 278 -138 456.5t-349 178.5 q-144 0 -238 -87.5t-94 -219.5q0 -46 26.5 -156t26.5 -174q0 -90 -22 -153.5t-47 -63.5q-10 0 -14.5 9.5t-4.5 31.5q0 72 -33.5 211.5t-33.5 208.5q0 193 139 315.5t354 122.5q233 0 382 -151t149 -391q0 -185 -72 -356.5t-201 -295.5q-117 -111 -269 -163t-361 -52 q-242 0 -372 130t-130 370zM684 1585q0 37 25 63.5t61 26.5q30 0 46.5 -18t16.5 -51q0 -38 -24 -63t-60 -25q-31 0 -48 17.5t-17 49.5zM1018 1585q0 37 24.5 63.5t59.5 26.5q30 0 46.5 -18t16.5 -51q0 -38 -23 -63t-59 -25q-31 0 -48 17.5t-17 49.5z" />
<glyph unicode="&#xd7;" horiz-adv-x="1706" d="M309 123l488 487l-488 488l58 57l487 -487l487 487l58 -57l-488 -488l488 -487l-58 -57l-487 487l-487 -487z" />
<glyph unicode="&#xd8;" horiz-adv-x="1473" d="M33 467q0 98 34.5 198t102.5 195q44 62 65 84.5t33 22.5q7 0 12 -3t5 -8q0 -4 -17 -30q-127 -197 -127 -391q0 -197 111.5 -327.5t285.5 -133.5l455 1231q-38 13 -72.5 19.5t-64.5 6.5q-150 0 -245 -86.5t-95 -220.5q0 -46 26.5 -156t26.5 -174q0 -90 -22 -153.5 t-47 -63.5q-10 0 -14.5 9.5t-4.5 31.5q0 72 -33.5 211.5t-33.5 208.5q0 192 139.5 315t353.5 123q19 0 41 -2t68 -10l84 233h45l-88 -241q189 -62 285 -194t96 -331q0 -221 -103.5 -421.5t-275.5 -313.5q-92 -60 -218.5 -92t-295.5 -37l-103 -272h-45l101 274h-4 q-212 0 -336.5 135t-124.5 363zM582 72q12 -1 32 -2q53 -2 70 -2q311 0 481 164.5t170 461.5q0 207 -80 365t-221 229z" />
<glyph unicode="&#xd9;" horiz-adv-x="1878" d="M31 1087q0 57 36.5 96t135.5 87q98 48 227.5 76t249.5 28q144 0 215.5 -49.5t71.5 -148.5q0 -76 -86.5 -321.5t-128.5 -397.5q-26 -92 -40 -181t-14 -165q0 -33 13.5 -42.5t52.5 -9.5q198 0 380 154t267 406q9 26 26 77q82 255 162 361q37 48 78 83.5t56 35.5 q5 -1 7 -2.5t3 -6.5q0 -3 -18 -41q-209 -430 -336 -1032h204q82 0 162 44q19 12 25 12q6 -1 9 -3.5t3 -7.5q0 -18 -39 -49q-5 -4 -8 -6l-9 -7q-124 -102 -270 -102q-75 0 -106 31t-31 105q0 7 1.5 32t4.5 63l8 156q-165 -185 -333.5 -283.5t-321.5 -98.5q-62 0 -80 25 t-18 142q0 112 20 231t58 230q35 104 96 269q88 239 88 297q0 87 -45.5 124t-157.5 37q-187 0 -348.5 -70t-161.5 -143q0 -41 34 -189t34 -235q0 -52 -23 -103.5t-34 -51.5q-13 0 -17 43q-2 29 -6 49q-10 50 -53 206t-43 246zM1161 1727q0 28 16.5 44.5t43.5 16.5 q49 0 85 -96q18 -47 31 -68q40 -64 109 -113.5t69 -56.5q0 -8 -4.5 -12t-13.5 -4q-16 0 -43 12.5t-106 60.5q-94 57 -140.5 110.5t-46.5 105.5z" />
<glyph unicode="&#xda;" horiz-adv-x="1878" d="M31 1087q0 57 36.5 96t135.5 87q98 48 227.5 76t249.5 28q144 0 215.5 -49.5t71.5 -148.5q0 -76 -86.5 -321.5t-128.5 -397.5q-26 -92 -40 -181t-14 -165q0 -33 13.5 -42.5t52.5 -9.5q198 0 380 154t267 406q9 26 26 77q82 255 162 361q37 48 78 83.5t56 35.5 q5 -1 7 -2.5t3 -6.5q0 -3 -18 -41q-209 -430 -336 -1032h204q82 0 162 44q19 12 25 12q6 -1 9 -3.5t3 -7.5q0 -18 -39 -49q-5 -4 -8 -6l-9 -7q-124 -102 -270 -102q-75 0 -106 31t-31 105q0 7 1.5 32t4.5 63l8 156q-165 -185 -333.5 -283.5t-321.5 -98.5q-62 0 -80 25 t-18 142q0 112 20 231t58 230q35 104 96 269q88 239 88 297q0 87 -45.5 124t-157.5 37q-187 0 -348.5 -70t-161.5 -143q0 -41 34 -189t34 -235q0 -52 -23 -103.5t-34 -51.5q-13 0 -17 43q-2 29 -6 49q-10 50 -53 206t-43 246zM1268 1452q0 10 64.5 54.5t105.5 103.5 q17 25 39 80q37 96 86 96q27 0 43 -16.5t16 -45.5q0 -50 -48.5 -105.5t-140.5 -109.5q-7 -4 -24 -14q-98 -57 -123 -57q-9 0 -13.5 3.5t-4.5 10.5z" />
<glyph unicode="&#xdb;" horiz-adv-x="1878" d="M31 1087q0 57 36.5 96t135.5 87q98 48 227.5 76t249.5 28q144 0 215.5 -49.5t71.5 -148.5q0 -76 -86.5 -321.5t-128.5 -397.5q-26 -92 -40 -181t-14 -165q0 -33 13.5 -42.5t52.5 -9.5q198 0 380 154t267 406q9 26 26 77q82 255 162 361q37 48 78 83.5t56 35.5 q5 -1 7 -2.5t3 -6.5q0 -3 -18 -41q-209 -430 -336 -1032h204q82 0 162 44q19 12 25 12q6 -1 9 -3.5t3 -7.5q0 -18 -39 -49q-5 -4 -8 -6l-9 -7q-124 -102 -270 -102q-75 0 -106 31t-31 105q0 7 1.5 32t4.5 63l8 156q-165 -185 -333.5 -283.5t-321.5 -98.5q-62 0 -80 25 t-18 142q0 112 20 231t58 230q35 104 96 269q88 239 88 297q0 87 -45.5 124t-157.5 37q-187 0 -348.5 -70t-161.5 -143q0 -41 34 -189t34 -235q0 -52 -23 -103.5t-34 -51.5q-13 0 -17 43q-2 29 -6 49q-10 50 -53 206t-43 246zM1085 1450q0 13 58 57t102 86q72 70 130 145 t67 75q14 0 23.5 -42t25.5 -81q30 -75 76.5 -151.5t46.5 -82.5q0 -7 -6 -12.5t-15 -5.5q-19 0 -65.5 51.5t-116.5 148.5q-95 -87 -183.5 -142.5t-123.5 -55.5q-8 0 -13 2.5t-6 7.5z" />
<glyph unicode="&#xdc;" horiz-adv-x="1878" d="M31 1087q0 57 36.5 96t135.5 87q98 48 227.5 76t249.5 28q144 0 215.5 -49.5t71.5 -148.5q0 -76 -86.5 -321.5t-128.5 -397.5q-26 -92 -40 -181t-14 -165q0 -33 13.5 -42.5t52.5 -9.5q198 0 380 154t267 406q9 26 26 77q82 255 162 361q37 48 78 83.5t56 35.5 q5 -1 7 -2.5t3 -6.5q0 -3 -18 -41q-209 -430 -336 -1032h204q82 0 162 44q19 12 25 12q6 -1 9 -3.5t3 -7.5q0 -18 -39 -49q-5 -4 -8 -6l-9 -7q-124 -102 -270 -102q-75 0 -106 31t-31 105q0 7 1.5 32t4.5 63l8 156q-165 -185 -333.5 -283.5t-321.5 -98.5q-62 0 -80 25 t-18 142q0 112 20 231t58 230q35 104 96 269q88 239 88 297q0 87 -45.5 124t-157.5 37q-187 0 -348.5 -70t-161.5 -143q0 -41 34 -189t34 -235q0 -52 -23 -103.5t-34 -51.5q-13 0 -17 43q-2 29 -6 49q-10 50 -53 206t-43 246zM1143 1585q0 37 25 63.5t61 26.5q30 0 46.5 -18 t16.5 -51q0 -38 -24 -63t-60 -25q-31 0 -48 17.5t-17 49.5zM1477 1585q0 37 24.5 63.5t59.5 26.5q30 0 46.5 -18t16.5 -51q0 -38 -23 -63t-59 -25q-31 0 -48 17.5t-17 49.5z" />
<glyph unicode="&#xdd;" horiz-adv-x="1782" d="M16 920q0 63 59 128.5t175 133.5q140 81 294 129.5t265 48.5q96 0 144 -40.5t48 -121.5q0 -26 -9 -75t-27 -124l-109 -454l-10 -42q-72 -299 -72 -364q0 -47 11.5 -78.5t27.5 -31.5q24 0 99.5 29t144.5 73q150 96 266 229.5t168 268.5q14 37 54.5 198t103.5 260 q43 68 92.5 113t75.5 45q4 0 7 -4.5t3 -11.5q0 -8 -25 -53.5t-43 -88.5q-40 -96 -106 -362l-6 -27l-82 -335l-5 -20q-121 -499 -311 -687q-120 -119 -277.5 -171t-406.5 -52q-95 0 -133.5 9t-38.5 30q0 2 3 6.5t10 11.5l81 86q38 -13 83 -19t112 -6q271 0 424 64.5 t199 198.5q31 94 75.5 297t73.5 305q-202 -209 -388 -324t-321 -115q-44 0 -67 52.5t-23 154.5q0 55 23 173t86 382l36 144q68 266 68 350q0 49 -16.5 65.5t-71.5 16.5q-87 0 -184.5 -27t-206.5 -82q-117 -58 -182.5 -125t-65.5 -129q0 -42 15.5 -110.5t44.5 -155.5l51 -154 q9 -27 11.5 -37t2.5 -16q0 -10 -6.5 -17t-15.5 -7q-49 0 -80 23.5t-49 76.5l-54 162q-24 72 -34.5 118.5t-10.5 84.5zM1319 1452q0 10 64.5 54.5t105.5 103.5q17 25 39 80q37 96 86 96q27 0 43 -16.5t16 -45.5q0 -50 -48.5 -105.5t-140.5 -109.5q-7 -4 -24 -14 q-98 -57 -123 -57q-9 0 -13.5 3.5t-4.5 10.5z" />
<glyph unicode="&#xde;" horiz-adv-x="1763" d="M-217 -12q37 62 130.5 89t276.5 27h310q36 0 57.5 43t46.5 152l109 473q30 130 55.5 205.5t56.5 130.5q-294 -27 -444 -95t-150 -173q0 -50 59.5 -181.5t59.5 -216.5q0 -48 -12 -81t-29 -33q-11 0 -28.5 58.5t-38.5 105.5l-84 180q-23 46 -33 77.5t-10 57.5 q0 117 200 214t539 138q59 97 124 156t105 59q5 0 8 -2t3 -4q0 -7 -49 -67.5t-78 -130.5q50 3 94.5 4.5t85.5 1.5q262 0 408.5 -119t146.5 -328q0 -90 -42.5 -171.5t-127.5 -156.5q-88 -76 -196 -122t-195 -46q-98 0 -198.5 28t-100.5 44q0 13 58.5 34t111.5 21 q37 0 116.5 -18t122.5 -18q148 0 239 90.5t91 238.5q0 107 -46.5 207t-123.5 160q-65 51 -164 74.5t-252 23.5h-45q-40 -145 -99 -393q-96 -401 -163 -506q-73 -115 -183.5 -172t-258.5 -57h-410l-4.5 -1t-9.5 -1h-21h-18z" />
<glyph unicode="&#xdf;" horiz-adv-x="778" d="M-203 -616q73 208 175 694.5t151 691.5q87 368 196 532t263 164q78 0 134 -68t56 -167q0 -107 -53 -205t-199 -242q-22 -22 -60 -59q-83 -81 -83 -96q0 -14 91 -43q9 -3 13 -4q87 -29 126.5 -76.5t39.5 -122.5q0 -62 -38 -135t-115 -160q-60 -65 -104.5 -85.5 t-110.5 -20.5q-82 0 -111 16.5t-29 58.5q0 26 14.5 57t41.5 62l71 80q9 11 14 14.5t9 3.5q6 0 10 -2.5t4 -5.5q0 -7 -38 -60t-38 -77q0 -31 39 -47t113 -16q12 0 36 2q7 1 11 2q48 71 72 141.5t24 138.5q0 62 -25.5 109.5t-78.5 85.5q-11 7 -29 18q-55 34 -55 62q0 34 64 99 q37 37 57 60q98 118 152.5 246.5t54.5 237.5q0 78 -27.5 120t-77.5 42q-86 0 -160.5 -145t-148.5 -460q-35 -147 -95 -436q-144 -697 -280 -1005h-76z" />
<glyph unicode="&#xe0;" horiz-adv-x="825" d="M-33 147q0 82 41 159.5t121 148.5q78 68 157 100.5t169 32.5q74 0 115.5 -36t41.5 -99q0 -39 -33.5 -130.5t-97.5 -226.5h78q87 0 152 57q19 17 26 17q5 0 8 -3t3 -7q0 -28 -77 -99t-141 -71q-60 0 -91 37.5t-44 128.5q-83 -95 -143 -130.5t-127 -35.5q-79 0 -118.5 39 t-39.5 118zM74 186q0 -49 23 -69.5t85 -20.5q66 0 102 15t70 51q58 60 103 159.5t45 161.5q0 38 -16 53t-58 15q-78 0 -139 -34.5t-121 -113.5q-46 -61 -70 -116.5t-24 -100.5zM254 961q0 28 16.5 44.5t43.5 16.5q49 0 85 -96q18 -47 31 -68q40 -64 109 -113.5t69 -56.5 q0 -8 -4.5 -12t-13.5 -4q-16 0 -43 12.5t-106 60.5q-94 57 -140.5 110.5t-46.5 105.5z" />
<glyph unicode="&#xe1;" horiz-adv-x="825" d="M-33 147q0 82 41 159.5t121 148.5q78 68 157 100.5t169 32.5q74 0 115.5 -36t41.5 -99q0 -39 -33.5 -130.5t-97.5 -226.5h78q87 0 152 57q19 17 26 17q5 0 8 -3t3 -7q0 -28 -77 -99t-141 -71q-60 0 -91 37.5t-44 128.5q-83 -95 -143 -130.5t-127 -35.5q-79 0 -118.5 39 t-39.5 118zM74 186q0 -49 23 -69.5t85 -20.5q66 0 102 15t70 51q58 60 103 159.5t45 161.5q0 38 -16 53t-58 15q-78 0 -139 -34.5t-121 -113.5q-46 -61 -70 -116.5t-24 -100.5zM361 686q0 10 64.5 54.5t105.5 103.5q17 25 39 80q37 96 86 96q27 0 43 -16.5t16 -45.5 q0 -50 -48.5 -105.5t-140.5 -109.5q-7 -4 -24 -14q-98 -57 -123 -57q-9 0 -13.5 3.5t-4.5 10.5z" />
<glyph unicode="&#xe2;" horiz-adv-x="825" d="M-33 147q0 82 41 159.5t121 148.5q78 68 157 100.5t169 32.5q74 0 115.5 -36t41.5 -99q0 -39 -33.5 -130.5t-97.5 -226.5h78q87 0 152 57q19 17 26 17q5 0 8 -3t3 -7q0 -28 -77 -99t-141 -71q-60 0 -91 37.5t-44 128.5q-83 -95 -143 -130.5t-127 -35.5q-79 0 -118.5 39 t-39.5 118zM74 186q0 -49 23 -69.5t85 -20.5q66 0 102 15t70 51q58 60 103 159.5t45 161.5q0 38 -16 53t-58 15q-78 0 -139 -34.5t-121 -113.5q-46 -61 -70 -116.5t-24 -100.5zM178 684q0 13 58 57t102 86q72 70 130 145t67 75q14 0 23.5 -42t25.5 -81q30 -75 76.5 -151.5 t46.5 -82.5q0 -7 -6 -12.5t-15 -5.5q-19 0 -65.5 51.5t-116.5 148.5q-95 -87 -183.5 -142.5t-123.5 -55.5q-8 0 -13 2.5t-6 7.5z" />
<glyph unicode="&#xe3;" horiz-adv-x="825" d="M-33 147q0 82 41 159.5t121 148.5q78 68 157 100.5t169 32.5q74 0 115.5 -36t41.5 -99q0 -39 -33.5 -130.5t-97.5 -226.5h78q87 0 152 57q19 17 26 17q5 0 8 -3t3 -7q0 -28 -77 -99t-141 -71q-60 0 -91 37.5t-44 128.5q-83 -95 -143 -130.5t-127 -35.5q-79 0 -118.5 39 t-39.5 118zM74 186q0 -49 23 -69.5t85 -20.5q66 0 102 15t70 51q58 60 103 159.5t45 161.5q0 38 -16 53t-58 15q-78 0 -139 -34.5t-121 -113.5q-46 -61 -70 -116.5t-24 -100.5zM166 729q0 62 53 130.5t127 68.5q50 0 148.5 -38t144.5 -38q59 0 91.5 48t41.5 48t15 -4t6 -10 q0 -61 -53.5 -130t-126.5 -69q-53 0 -151.5 39t-141.5 39q-59 0 -91.5 -48t-41.5 -48q-10 0 -15.5 3t-5.5 9z" />
<glyph unicode="&#xe4;" horiz-adv-x="825" d="M-33 147q0 82 41 159.5t121 148.5q78 68 157 100.5t169 32.5q74 0 115.5 -36t41.5 -99q0 -39 -33.5 -130.5t-97.5 -226.5h78q87 0 152 57q19 17 26 17q5 0 8 -3t3 -7q0 -28 -77 -99t-141 -71q-60 0 -91 37.5t-44 128.5q-83 -95 -143 -130.5t-127 -35.5q-79 0 -118.5 39 t-39.5 118zM74 186q0 -49 23 -69.5t85 -20.5q66 0 102 15t70 51q58 60 103 159.5t45 161.5q0 38 -16 53t-58 15q-78 0 -139 -34.5t-121 -113.5q-46 -61 -70 -116.5t-24 -100.5zM236 819q0 37 25 63.5t61 26.5q30 0 46.5 -18t16.5 -51q0 -38 -24 -63t-60 -25q-31 0 -48 17.5 t-17 49.5zM570 819q0 37 24.5 63.5t59.5 26.5q30 0 46.5 -18t16.5 -51q0 -38 -23 -63t-59 -25q-31 0 -48 17.5t-17 49.5z" />
<glyph unicode="&#xe5;" horiz-adv-x="825" d="M-33 147q0 82 41 159.5t121 148.5q78 68 157 100.5t169 32.5q74 0 115.5 -36t41.5 -99q0 -39 -33.5 -130.5t-97.5 -226.5h78q87 0 152 57q19 17 26 17q5 0 8 -3t3 -7q0 -28 -77 -99t-141 -71q-60 0 -91 37.5t-44 128.5q-83 -95 -143 -130.5t-127 -35.5q-79 0 -118.5 39 t-39.5 118zM74 186q0 -49 23 -69.5t85 -20.5q66 0 102 15t70 51q58 60 103 159.5t45 161.5q0 38 -16 53t-58 15q-78 0 -139 -34.5t-121 -113.5q-46 -61 -70 -116.5t-24 -100.5zM330 819q0 72 51 123t123 51q73 0 123.5 -50.5t50.5 -123.5q0 -72 -51 -123t-123 -51t-123 51 t-51 123zM381 819q0 -52 35 -86.5t88 -34.5q51 0 86 35t35 86t-35.5 87t-85.5 36q-52 0 -87.5 -36t-35.5 -87z" />
<glyph unicode="&#xe6;" horiz-adv-x="1042" d="M-78 121q0 75 57 157.5t175 178.5q74 61 145 94t129 33q36 0 58 -16t34 -52q36 42 76.5 59t108.5 17q29 0 85 -5t80 -5q9 0 18.5 1t10.5 1q18 0 28.5 -5t10.5 -14q0 -21 -43 -58.5t-76 -37.5q-34 0 -91 31.5t-79 31.5q-27 0 -50.5 -30t-23.5 -60q0 -23 23.5 -36t93.5 -25 q24 -4 62 -7q45 -4 45 -18q0 -25 -28 -47t-66 -22q-31 0 -68 8t-86 27q-49 -48 -78 -98t-29 -83q0 -24 25.5 -33.5t97.5 -9.5h176q129 0 193 67q14 15 20 15q8 0 13.5 -4t5.5 -10q0 -10 -17 -30.5t-49 -49.5q-56 -50 -94.5 -68t-118.5 -18h-207q-94 0 -127.5 25t-37.5 92 q-81 -84 -131.5 -107.5t-129.5 -23.5q-72 0 -106.5 33t-34.5 102zM43 150q0 -34 21 -50t63 -16q119 0 192 72.5t172 307.5q-4 39 -25 59t-56 20q-50 0 -119 -40.5t-127 -105.5q-55 -62 -88 -131.5t-33 -115.5z" />
<glyph unicode="&#xe7;" horiz-adv-x="631" d="M-68 -293q0 7 5 12t12 5q10 0 86 -23t139 -23q62 0 100.5 27.5t38.5 69.5q0 39 -25.5 57t-80.5 18q-11 0 -25 -2t-29 -6l-38 17l96 147h45l-66 -104q5 0 16 2q44 6 58 6q71 0 108 -33t37 -94q0 -74 -56 -119t-150 -45q-103 0 -187 32.5t-84 55.5zM-39 166q0 166 136 294 t319 128q41 0 54 -9.5t13 -39.5q0 -34 -20 -103.5t-53 -142.5q-21 -44 -33.5 -62t-22.5 -18q-4 0 -8 4.5t-4 9.5t6 26q33 107 35 213q-8 2 -26.5 4.5t-28.5 2.5q-48 0 -92.5 -16.5t-88.5 -50.5q-62 -51 -106.5 -125.5t-44.5 -122.5q0 -46 34 -60t208 -14q102 0 151 8.5 t80 28.5q9 6 27.5 23.5t27.5 17.5q5 0 8 -3.5t3 -11.5q0 -14 -22.5 -41t-61.5 -59q-43 -35 -90 -50t-134 -15h-28q-137 0 -187.5 41.5t-50.5 142.5z" />
<glyph unicode="&#xe8;" horiz-adv-x="668" d="M-59 104q0 58 52.5 110.5t158.5 98.5q-53 10 -72 30.5t-19 66.5q0 76 61.5 128t151.5 52q30 0 90.5 -4t90.5 -4h22q27 0 37 -4t10 -13q0 -21 -43.5 -56.5t-79.5 -35.5q-31 0 -89.5 32t-90.5 32q-37 0 -63.5 -23.5t-26.5 -56.5q0 -25 30 -41.5t107 -32.5q31 -7 73 -9 q42 -4 42 -18q0 -32 -33 -50.5t-92 -18.5q-10 0 -23.5 2t-31.5 6q-75 -34 -111.5 -68t-36.5 -69t25.5 -47.5t101.5 -12.5h178q122 0 188 66q16 16 23 16q5 0 8 -3.5t3 -8.5q0 -7 -3 -14.5t-8 -12.5l-45 -47q-55 -60 -91.5 -77t-121.5 -17h-209q-88 0 -125.5 24.5t-37.5 79.5 zM166 961q0 28 16.5 44.5t43.5 16.5q49 0 85 -96q18 -47 31 -68q40 -64 109 -113.5t69 -56.5q0 -8 -4.5 -12t-13.5 -4q-16 0 -43 12.5t-106 60.5q-94 57 -140.5 110.5t-46.5 105.5z" />
<glyph unicode="&#xe9;" horiz-adv-x="668" d="M-59 104q0 58 52.5 110.5t158.5 98.5q-53 10 -72 30.5t-19 66.5q0 76 61.5 128t151.5 52q30 0 90.5 -4t90.5 -4h22q27 0 37 -4t10 -13q0 -21 -43.5 -56.5t-79.5 -35.5q-31 0 -89.5 32t-90.5 32q-37 0 -63.5 -23.5t-26.5 -56.5q0 -25 30 -41.5t107 -32.5q31 -7 73 -9 q42 -4 42 -18q0 -32 -33 -50.5t-92 -18.5q-10 0 -23.5 2t-31.5 6q-75 -34 -111.5 -68t-36.5 -69t25.5 -47.5t101.5 -12.5h178q122 0 188 66q16 16 23 16q5 0 8 -3.5t3 -8.5q0 -7 -3 -14.5t-8 -12.5l-45 -47q-55 -60 -91.5 -77t-121.5 -17h-209q-88 0 -125.5 24.5t-37.5 79.5 zM273 686q0 10 64.5 54.5t105.5 103.5q17 25 39 80q37 96 86 96q27 0 43 -16.5t16 -45.5q0 -50 -48.5 -105.5t-140.5 -109.5q-7 -4 -24 -14q-98 -57 -123 -57q-9 0 -13.5 3.5t-4.5 10.5z" />
<glyph unicode="&#xea;" horiz-adv-x="668" d="M-59 104q0 58 52.5 110.5t158.5 98.5q-53 10 -72 30.5t-19 66.5q0 76 61.5 128t151.5 52q30 0 90.5 -4t90.5 -4h22q27 0 37 -4t10 -13q0 -21 -43.5 -56.5t-79.5 -35.5q-31 0 -89.5 32t-90.5 32q-37 0 -63.5 -23.5t-26.5 -56.5q0 -25 30 -41.5t107 -32.5q31 -7 73 -9 q42 -4 42 -18q0 -32 -33 -50.5t-92 -18.5q-10 0 -23.5 2t-31.5 6q-75 -34 -111.5 -68t-36.5 -69t25.5 -47.5t101.5 -12.5h178q122 0 188 66q16 16 23 16q5 0 8 -3.5t3 -8.5q0 -7 -3 -14.5t-8 -12.5l-45 -47q-55 -60 -91.5 -77t-121.5 -17h-209q-88 0 -125.5 24.5t-37.5 79.5 zM90 684q0 13 58 57t102 86q72 70 130 145t67 75q14 0 23.5 -42t25.5 -81q30 -75 76.5 -151.5t46.5 -82.5q0 -7 -6 -12.5t-15 -5.5q-19 0 -65.5 51.5t-116.5 148.5q-95 -87 -183.5 -142.5t-123.5 -55.5q-8 0 -13 2.5t-6 7.5z" />
<glyph unicode="&#xeb;" horiz-adv-x="668" d="M-59 104q0 58 52.5 110.5t158.5 98.5q-53 10 -72 30.5t-19 66.5q0 76 61.5 128t151.5 52q30 0 90.5 -4t90.5 -4h22q27 0 37 -4t10 -13q0 -21 -43.5 -56.5t-79.5 -35.5q-31 0 -89.5 32t-90.5 32q-37 0 -63.5 -23.5t-26.5 -56.5q0 -25 30 -41.5t107 -32.5q31 -7 73 -9 q42 -4 42 -18q0 -32 -33 -50.5t-92 -18.5q-10 0 -23.5 2t-31.5 6q-75 -34 -111.5 -68t-36.5 -69t25.5 -47.5t101.5 -12.5h178q122 0 188 66q16 16 23 16q5 0 8 -3.5t3 -8.5q0 -7 -3 -14.5t-8 -12.5l-45 -47q-55 -60 -91.5 -77t-121.5 -17h-209q-88 0 -125.5 24.5t-37.5 79.5 zM148 819q0 37 25 63.5t61 26.5q30 0 46.5 -18t16.5 -51q0 -38 -24 -63t-60 -25q-31 0 -48 17.5t-17 49.5zM482 819q0 37 24.5 63.5t59.5 26.5q30 0 46.5 -18t16.5 -51q0 -38 -23 -63t-59 -25q-31 0 -48 17.5t-17 49.5z" />
<glyph unicode="&#xec;" horiz-adv-x="455" d="M-6 131q0 38 19.5 127t56.5 222q1 5 5 18q23 86 54 86h61q21 0 26 -4.5t5 -14.5q0 -2 -6 -18q-26 -64 -47 -135q-6 -20 -18 -61q-47 -171 -101 -265h129q85 0 159 66q19 16 23 16q5 0 10 -4t5 -8q0 -26 -87 -100t-157 -74q-66 0 -101.5 38.5t-35.5 110.5zM53 961 q0 28 16.5 44.5t43.5 16.5q49 0 85 -96q18 -47 31 -68q40 -64 109 -113.5t69 -56.5q0 -8 -4.5 -12t-13.5 -4q-16 0 -43 12.5t-106 60.5q-94 57 -140.5 110.5t-46.5 105.5z" />
<glyph unicode="&#xed;" horiz-adv-x="455" d="M-6 131q0 38 19.5 127t56.5 222q1 5 5 18q23 86 54 86h61q21 0 26 -4.5t5 -14.5q0 -2 -6 -18q-26 -64 -47 -135q-6 -20 -18 -61q-47 -171 -101 -265h129q85 0 159 66q19 16 23 16q5 0 10 -4t5 -8q0 -26 -87 -100t-157 -74q-66 0 -101.5 38.5t-35.5 110.5zM160 686 q0 10 64.5 54.5t105.5 103.5q17 25 39 80q37 96 86 96q27 0 43 -16.5t16 -45.5q0 -50 -48.5 -105.5t-140.5 -109.5q-7 -4 -24 -14q-98 -57 -123 -57q-9 0 -13.5 3.5t-4.5 10.5z" />
<glyph unicode="&#xee;" horiz-adv-x="455" d="M-23 684q0 13 58 57t102 86q72 70 130 145t67 75q14 0 23.5 -42t25.5 -81q30 -75 76.5 -151.5t46.5 -82.5q0 -7 -6 -12.5t-15 -5.5q-19 0 -65.5 51.5t-116.5 148.5q-95 -87 -183.5 -142.5t-123.5 -55.5q-8 0 -13 2.5t-6 7.5zM-6 131q0 38 19.5 127t56.5 222q1 5 5 18 q23 86 54 86h61q21 0 26 -4.5t5 -14.5q0 -2 -6 -18q-26 -64 -47 -135q-6 -20 -18 -61q-47 -171 -101 -265h129q85 0 159 66q19 16 23 16q5 0 10 -4t5 -8q0 -26 -87 -100t-157 -74q-66 0 -101.5 38.5t-35.5 110.5z" />
<glyph unicode="&#xef;" horiz-adv-x="455" d="M-6 131q0 38 19.5 127t56.5 222q1 5 5 18q23 86 54 86h61q21 0 26 -4.5t5 -14.5q0 -2 -6 -18q-26 -64 -47 -135q-6 -20 -18 -61q-47 -171 -101 -265h129q85 0 159 66q19 16 23 16q5 0 10 -4t5 -8q0 -26 -87 -100t-157 -74q-66 0 -101.5 38.5t-35.5 110.5zM35 819 q0 37 25 63.5t61 26.5q30 0 46.5 -18t16.5 -51q0 -38 -24 -63t-60 -25q-31 0 -48 17.5t-17 49.5zM369 819q0 37 24.5 63.5t59.5 26.5q30 0 46.5 -18t16.5 -51q0 -38 -23 -63t-59 -25q-31 0 -48 17.5t-17 49.5z" />
<glyph unicode="&#xf0;" horiz-adv-x="786" d="M-45 180q0 80 51 168.5t135 151.5q56 42 125.5 66t136.5 24q23 0 48 -3t55 -9q-5 72 -17 148.5t-32 158.5l-269 -97q-12 -4 -16.5 -5t-7.5 -1q-13 1 -19.5 6t-7.5 15q0 10 6.5 17t22.5 14l276 102q-32 152 -87 304q-15 40 -15 46q0 11 9 20t20 9q21 0 50.5 -56.5 t115.5 -285.5l238 84q9 3 15.5 4.5t10.5 1.5q10 0 17 -6t7 -15q0 -10 -6.5 -17t-21.5 -13l-242 -90q51 -172 77.5 -304.5t26.5 -207.5q0 -173 -127.5 -303t-302.5 -130q-123 0 -197.5 56t-74.5 147zM78 233q0 -76 40.5 -110.5t133.5 -34.5h217q38 62 57 119.5t19 111.5 q0 100 -55 163t-140 63q-104 0 -188 -96.5t-84 -215.5z" />
<glyph unicode="&#xf1;" horiz-adv-x="801" d="M-74 0q81 202 114.5 345t33.5 273v29q50 -27 72 -70.5t22 -113.5q0 -19 -3 -61q-1 -7 -1 -11q97 107 172 154t147 47q65 0 99 -32.5t34 -92.5q0 -67 -58.5 -152t-195.5 -213h175q88 0 160 60q14 12 18 12q5 0 9.5 -3.5t4.5 -6.5q0 -38 -87.5 -101t-186.5 -63h-203 q121 162 182.5 273.5t61.5 168.5q0 38 -18.5 57t-55.5 19q-70 0 -145 -59.5t-115 -149.5q-44 -96 -76 -169t-39 -91q-14 -35 -24.5 -42t-45.5 -7h-51zM113 729q0 62 53 130.5t127 68.5q50 0 148.5 -38t144.5 -38q59 0 91.5 48t41.5 48t15 -4t6 -10q0 -61 -53.5 -130 t-126.5 -69q-53 0 -151.5 39t-141.5 39q-59 0 -91.5 -48t-41.5 -48q-10 0 -15.5 3t-5.5 9z" />
<glyph unicode="&#xf2;" horiz-adv-x="786" d="M-45 188q0 75 52 163t134 149q60 44 129 67t144 23q112 0 177.5 -55t65.5 -148q0 -70 -35.5 -146t-97.5 -137q-65 -65 -137.5 -96t-159.5 -31q-126 0 -199 57t-73 154zM78 233q0 -76 40.5 -110.5t133.5 -34.5h217q39 63 57.5 119.5t18.5 111.5q0 100 -55 163t-140 63 q-104 0 -188 -96.5t-84 -215.5zM213 961q0 28 16.5 44.5t43.5 16.5q49 0 85 -96q18 -47 31 -68q40 -64 109 -113.5t69 -56.5q0 -8 -4.5 -12t-13.5 -4q-16 0 -43 12.5t-106 60.5q-94 57 -140.5 110.5t-46.5 105.5z" />
<glyph unicode="&#xf3;" horiz-adv-x="786" d="M-45 188q0 75 52 163t134 149q60 44 129 67t144 23q112 0 177.5 -55t65.5 -148q0 -70 -35.5 -146t-97.5 -137q-65 -65 -137.5 -96t-159.5 -31q-126 0 -199 57t-73 154zM78 233q0 -76 40.5 -110.5t133.5 -34.5h217q39 63 57.5 119.5t18.5 111.5q0 100 -55 163t-140 63 q-104 0 -188 -96.5t-84 -215.5zM320 686q0 10 64.5 54.5t105.5 103.5q17 25 39 80q37 96 86 96q27 0 43 -16.5t16 -45.5q0 -50 -48.5 -105.5t-140.5 -109.5q-7 -4 -24 -14q-98 -57 -123 -57q-9 0 -13.5 3.5t-4.5 10.5z" />
<glyph unicode="&#xf4;" horiz-adv-x="786" d="M-45 188q0 75 52 163t134 149q60 44 129 67t144 23q112 0 177.5 -55t65.5 -148q0 -70 -35.5 -146t-97.5 -137q-65 -65 -137.5 -96t-159.5 -31q-126 0 -199 57t-73 154zM78 233q0 -76 40.5 -110.5t133.5 -34.5h217q39 63 57.5 119.5t18.5 111.5q0 100 -55 163t-140 63 q-104 0 -188 -96.5t-84 -215.5zM137 684q0 13 58 57t102 86q72 70 130 145t67 75q14 0 23.5 -42t25.5 -81q30 -75 76.5 -151.5t46.5 -82.5q0 -7 -6 -12.5t-15 -5.5q-19 0 -65.5 51.5t-116.5 148.5q-95 -87 -183.5 -142.5t-123.5 -55.5q-8 0 -13 2.5t-6 7.5z" />
<glyph unicode="&#xf5;" horiz-adv-x="786" d="M-45 188q0 75 52 163t134 149q60 44 129 67t144 23q112 0 177.5 -55t65.5 -148q0 -70 -35.5 -146t-97.5 -137q-65 -65 -137.5 -96t-159.5 -31q-126 0 -199 57t-73 154zM78 233q0 -76 40.5 -110.5t133.5 -34.5h217q39 63 57.5 119.5t18.5 111.5q0 100 -55 163t-140 63 q-104 0 -188 -96.5t-84 -215.5zM125 729q0 62 53 130.5t127 68.5q50 0 148.5 -38t144.5 -38q59 0 91.5 48t41.5 48t15 -4t6 -10q0 -61 -53.5 -130t-126.5 -69q-53 0 -151.5 39t-141.5 39q-59 0 -91.5 -48t-41.5 -48q-10 0 -15.5 3t-5.5 9z" />
<glyph unicode="&#xf6;" horiz-adv-x="786" d="M-45 188q0 75 52 163t134 149q60 44 129 67t144 23q112 0 177.5 -55t65.5 -148q0 -70 -35.5 -146t-97.5 -137q-65 -65 -137.5 -96t-159.5 -31q-126 0 -199 57t-73 154zM78 233q0 -76 40.5 -110.5t133.5 -34.5h217q39 63 57.5 119.5t18.5 111.5q0 100 -55 163t-140 63 q-104 0 -188 -96.5t-84 -215.5zM195 819q0 37 25 63.5t61 26.5q30 0 46.5 -18t16.5 -51q0 -38 -24 -63t-60 -25q-31 0 -48 17.5t-17 49.5zM529 819q0 37 24.5 63.5t59.5 26.5q30 0 46.5 -18t16.5 -51q0 -38 -23 -63t-59 -25q-31 0 -48 17.5t-17 49.5z" />
<glyph unicode="&#xf7;" horiz-adv-x="1706" d="M254 569v82h1198v-82h-1198zM756 264q0 41 29 71t69 30q41 0 69.5 -29.5t28.5 -71.5q0 -40 -28.5 -69t-69.5 -29t-69.5 28.5t-28.5 69.5zM756 956q0 41 28.5 70t69.5 29t69.5 -28.5t28.5 -70.5q0 -40 -28.5 -70t-69.5 -30t-69.5 29.5t-28.5 70.5z" />
<glyph unicode="&#xf8;" horiz-adv-x="786" d="M-45 180q0 149 139.5 279t318.5 133l91 225h43l-90 -229q94 -12 147 -65.5t53 -135.5q0 -153 -131 -280t-301 -127h-14l-105 -261h-43l105 263q-100 13 -156.5 66t-56.5 132zM78 233q0 -67 34.5 -104.5t97.5 -40.5l183 453q-7 0 -22 2t-19 2q-106 0 -190 -96.5 t-84 -215.5zM256 88h213q39 63 57.5 119t18.5 110q0 74 -28 126.5t-83 82.5z" />
<glyph unicode="&#xf9;" horiz-adv-x="815" d="M-31 180q0 65 52.5 179.5t52.5 172.5q0 41 -17.5 81l-17.5 40q0 5 4 7.5t12 3.5q24 0 61.5 -65.5t37.5 -127.5q0 -53 -33 -153t-33 -142q0 -44 18.5 -61t65.5 -17q132 0 218.5 134.5t86.5 349.5v6l84 -1q1 -20 1.5 -42t0.5 -58q0 -91 -19.5 -175.5t-76.5 -213.5h96 q60 0 139 57q21 15 25 15q5 0 8.5 -4t3.5 -8q0 -23 -84.5 -94.5t-146.5 -71.5q-52 0 -79 34.5t-48 141.5q-85 -98 -141.5 -137t-108.5 -39q-69 0 -115.5 53.5t-46.5 134.5zM164 961q0 28 16.5 44.5t43.5 16.5q49 0 85 -96q18 -47 31 -68q40 -64 109 -113.5t69 -56.5 q0 -8 -4.5 -12t-13.5 -4q-16 0 -43 12.5t-106 60.5q-94 57 -140.5 110.5t-46.5 105.5z" />
<glyph unicode="&#xfa;" horiz-adv-x="815" d="M-31 180q0 65 52.5 179.5t52.5 172.5q0 41 -17.5 81l-17.5 40q0 5 4 7.5t12 3.5q24 0 61.5 -65.5t37.5 -127.5q0 -53 -33 -153t-33 -142q0 -44 18.5 -61t65.5 -17q132 0 218.5 134.5t86.5 349.5v6l84 -1q1 -20 1.5 -42t0.5 -58q0 -91 -19.5 -175.5t-76.5 -213.5h96 q60 0 139 57q21 15 25 15q5 0 8.5 -4t3.5 -8q0 -23 -84.5 -94.5t-146.5 -71.5q-52 0 -79 34.5t-48 141.5q-85 -98 -141.5 -137t-108.5 -39q-69 0 -115.5 53.5t-46.5 134.5zM271 686q0 10 64.5 54.5t105.5 103.5q17 25 39 80q37 96 86 96q27 0 43 -16.5t16 -45.5 q0 -50 -48.5 -105.5t-140.5 -109.5q-7 -4 -24 -14q-98 -57 -123 -57q-9 0 -13.5 3.5t-4.5 10.5z" />
<glyph unicode="&#xfb;" horiz-adv-x="815" d="M-31 180q0 65 52.5 179.5t52.5 172.5q0 41 -17.5 81l-17.5 40q0 5 4 7.5t12 3.5q24 0 61.5 -65.5t37.5 -127.5q0 -53 -33 -153t-33 -142q0 -44 18.5 -61t65.5 -17q132 0 218.5 134.5t86.5 349.5v6l84 -1q1 -20 1.5 -42t0.5 -58q0 -91 -19.5 -175.5t-76.5 -213.5h96 q60 0 139 57q21 15 25 15q5 0 8.5 -4t3.5 -8q0 -23 -84.5 -94.5t-146.5 -71.5q-52 0 -79 34.5t-48 141.5q-85 -98 -141.5 -137t-108.5 -39q-69 0 -115.5 53.5t-46.5 134.5zM88 684q0 13 58 57t102 86q72 70 130 145t67 75q14 0 23.5 -42t25.5 -81q30 -75 76.5 -151.5 t46.5 -82.5q0 -7 -6 -12.5t-15 -5.5q-19 0 -65.5 51.5t-116.5 148.5q-95 -87 -183.5 -142.5t-123.5 -55.5q-8 0 -13 2.5t-6 7.5z" />
<glyph unicode="&#xfc;" horiz-adv-x="815" d="M-31 180q0 65 52.5 179.5t52.5 172.5q0 41 -17.5 81l-17.5 40q0 5 4 7.5t12 3.5q24 0 61.5 -65.5t37.5 -127.5q0 -53 -33 -153t-33 -142q0 -44 18.5 -61t65.5 -17q132 0 218.5 134.5t86.5 349.5v6l84 -1q1 -20 1.5 -42t0.5 -58q0 -91 -19.5 -175.5t-76.5 -213.5h96 q60 0 139 57q21 15 25 15q5 0 8.5 -4t3.5 -8q0 -23 -84.5 -94.5t-146.5 -71.5q-52 0 -79 34.5t-48 141.5q-85 -98 -141.5 -137t-108.5 -39q-69 0 -115.5 53.5t-46.5 134.5zM146 819q0 37 25 63.5t61 26.5q30 0 46.5 -18t16.5 -51q0 -38 -24 -63t-60 -25q-31 0 -48 17.5 t-17 49.5zM480 819q0 37 24.5 63.5t59.5 26.5q30 0 46.5 -18t16.5 -51q0 -38 -23 -63t-59 -25q-31 0 -48 17.5t-17 49.5z" />
<glyph unicode="&#xfd;" horiz-adv-x="717" d="M-223 -575q0 19 18.5 50.5t57.5 75.5l40 49q13 16 25.5 24.5t22.5 8.5q3 0 4 -2t2 -8q0 -17 -36 -60.5t-36 -68.5q0 -37 52 -57.5t149 -20.5q72 0 150 188.5t180 608.5q-87 -106 -162 -159.5t-138 -53.5q-62 0 -103.5 37.5t-41.5 93.5q0 72 58.5 207t58.5 188 q0 38 -19.5 81.5t-19.5 45.5q0 5 4 7.5t12 3.5q23 0 65 -66.5t42 -124.5q0 -50 -40 -157.5t-40 -159.5q0 -30 16 -43t54 -13q97 0 148 41.5t103 137.5q25 45 36 108t14 201h96v-27q0 -166 -36 -355.5t-105 -387.5q-96 -274 -203.5 -375.5t-280.5 -101.5q-64 0 -105.5 24 t-41.5 60zM217 686q0 10 64.5 54.5t105.5 103.5q17 25 39 80q37 96 86 96q27 0 43 -16.5t16 -45.5q0 -50 -48.5 -105.5t-140.5 -109.5q-7 -4 -24 -14q-98 -57 -123 -57q-9 0 -13.5 3.5t-4.5 10.5z" />
<glyph unicode="&#xfe;" horiz-adv-x="807" d="M-203 -645q84 287 202.5 853.5t207.5 817.5q64 183 140 304.5t118 121.5q6 0 10 -5.5t4 -12.5q0 -4 -26.5 -44.5t-49.5 -82.5q-50 -97 -103.5 -288t-135.5 -585q62 80 124 116t138 36q101 0 157 -49t56 -138q0 -81 -63 -158t-188 -151q28 -3 51 -4.5t40 -1.5 q108 0 181 66q18 16 24 16q7 0 11.5 -4.5t4.5 -9.5q0 -7 -15 -27t-38 -43q-53 -53 -100.5 -72.5t-116.5 -19.5h-186q-59 0 -101 -9q-6 -1 -8 -1q-5 0 -8.5 3t-3.5 9q0 16 44 39.5t120 46.5q97 29 162 113.5t65 177.5q0 76 -38 117.5t-107 41.5q-57 0 -111.5 -41.5 t-89.5 -111.5q-39 -77 -95 -337q-41 -184 -69 -292q-56 -211 -99.5 -304t-84.5 -93q-6 0 -10.5 1t-12.5 5z" />
<glyph unicode="&#xff;" horiz-adv-x="717" d="M-223 -575q0 19 18.5 50.5t57.5 75.5l40 49q13 16 25.5 24.5t22.5 8.5q3 0 4 -2t2 -8q0 -17 -36 -60.5t-36 -68.5q0 -37 52 -57.5t149 -20.5q72 0 150 188.5t180 608.5q-87 -106 -162 -159.5t-138 -53.5q-62 0 -103.5 37.5t-41.5 93.5q0 72 58.5 207t58.5 188 q0 38 -19.5 81.5t-19.5 45.5q0 5 4 7.5t12 3.5q23 0 65 -66.5t42 -124.5q0 -50 -40 -157.5t-40 -159.5q0 -30 16 -43t54 -13q97 0 148 41.5t103 137.5q25 45 36 108t14 201h96v-27q0 -166 -36 -355.5t-105 -387.5q-96 -274 -203.5 -375.5t-280.5 -101.5q-64 0 -105.5 24 t-41.5 60zM92 819q0 37 25 63.5t61 26.5q30 0 46.5 -18t16.5 -51q0 -38 -24 -63t-60 -25q-31 0 -48 17.5t-17 49.5zM426 819q0 37 24.5 63.5t59.5 26.5q30 0 46.5 -18t16.5 -51q0 -38 -23 -63t-59 -25q-31 0 -48 17.5t-17 49.5z" />
<glyph unicode="&#x152;" horiz-adv-x="2050" d="M33 455q0 108 35.5 213.5t101.5 191.5q11 14 29 38q53 69 69 69q7 0 12 -3t5 -8q0 -4 -17 -30q-127 -197 -127 -391q0 -68 19.5 -138.5t56.5 -134.5q62 -108 150.5 -150t269.5 -42q33 0 91.5 2.5t127.5 7.5q-11 22 -15.5 38.5t-4.5 31.5q0 109 143 261.5t356 252.5v18 q0 293 -137.5 471t-361.5 178q-137 0 -228.5 -88.5t-91.5 -218.5q0 -46 26.5 -156t26.5 -174q0 -90 -22 -153.5t-47 -63.5q-10 0 -14.5 9.5t-4.5 31.5q0 72 -33.5 211.5t-33.5 208.5q0 193 139 315.5t354 122.5q149 0 272.5 -70t196.5 -196q95 100 290.5 170t375.5 70 q45 0 71.5 -16.5t26.5 -43.5q0 -14 -9 -37.5t-22 -40.5l-75 -98q-13 -16 -28.5 -25.5t-45.5 -17.5l-71 -16q-13 -3 -22 -4.5t-12 -1.5q-5 0 -9.5 4.5t-4.5 11.5q0 4 7 14.5t18 22.5l86 94l3 4q38 41 38 68q0 21 -16 30t-56 9q-77 0 -178.5 -36t-167.5 -87q-74 -58 -117 -140 t-43 -165q0 -68 34 -97.5t110 -29.5q42 0 151 10t174 10q23 0 33 -4t10 -12q0 -57 -378 -143q-95 -21 -148 -33q-45 -162 -136 -285.5t-231 -212.5q62 -6 120 -9t114 -3q182 0 305.5 12t202.5 37q30 9 63 29t41 20q10 0 12 -1t2 -5q0 -11 -21 -30.5t-61 -45.5 q-95 -63 -226 -91t-349 -28q-118 0 -187 13.5t-132 44.5q-91 -29 -187 -43.5t-196 -14.5q-130 0 -212.5 28.5t-148.5 94.5q-70 70 -105.5 162t-35.5 203zM872 156q0 -20 15 -34.5t45 -25.5q158 48 257.5 164.5t131.5 292.5q-198 -85 -323.5 -198t-125.5 -199z" />
<glyph unicode="&#x153;" horiz-adv-x="1180" d="M-45 180q0 81 50.5 168t135.5 152q60 44 129.5 67t145.5 23q72 0 120 -18t76 -56q47 45 89.5 62.5t97.5 17.5q32 0 88.5 -7t81.5 -7q8 0 18 1l10 1q19 0 29 -5t10 -14q0 -21 -43.5 -56.5t-79.5 -35.5q-31 0 -89.5 32t-90.5 32q-37 0 -63.5 -23.5t-26.5 -56.5 q0 -25 30 -41.5t107 -32.5q31 -7 73 -9q42 -4 42 -18q0 -29 -30.5 -49t-80.5 -20q-31 0 -62.5 6.5t-68.5 21.5q-39 -85 -51 -116t-12 -41q0 -35 25 -47.5t102 -12.5h151q129 0 192 67q15 15 21 15q8 0 13.5 -4t5.5 -10q0 -10 -17 -30.5t-49 -49.5q-56 -50 -94.5 -68 t-118.5 -18h-205q-77 0 -104.5 12.5t-44.5 44.5q-51 -39 -112 -59.5t-132 -20.5q-121 0 -194.5 56t-73.5 147zM78 233q0 -76 40.5 -110.5t133.5 -34.5h199q50 84 73 149.5t23 124.5q0 76 -57 129.5t-140 53.5q-104 0 -188 -96.5t-84 -215.5z" />
<glyph unicode="&#x178;" horiz-adv-x="1782" d="M16 920q0 63 59 128.5t175 133.5q140 81 294 129.5t265 48.5q96 0 144 -40.5t48 -121.5q0 -26 -9 -75t-27 -124l-109 -454l-10 -42q-72 -299 -72 -364q0 -47 11.5 -78.5t27.5 -31.5q24 0 99.5 29t144.5 73q150 96 266 229.5t168 268.5q14 37 54.5 198t103.5 260 q43 68 92.5 113t75.5 45q4 0 7 -4.5t3 -11.5q0 -8 -25 -53.5t-43 -88.5q-40 -96 -106 -362l-6 -27l-82 -335l-5 -20q-121 -499 -311 -687q-120 -119 -277.5 -171t-406.5 -52q-95 0 -133.5 9t-38.5 30q0 2 3 6.5t10 11.5l81 86q38 -13 83 -19t112 -6q271 0 424 64.5 t199 198.5q31 94 75.5 297t73.5 305q-202 -209 -388 -324t-321 -115q-44 0 -67 52.5t-23 154.5q0 55 23 173t86 382l36 144q68 266 68 350q0 49 -16.5 65.5t-71.5 16.5q-87 0 -184.5 -27t-206.5 -82q-117 -58 -182.5 -125t-65.5 -129q0 -42 15.5 -110.5t44.5 -155.5l51 -154 q9 -27 11.5 -37t2.5 -16q0 -10 -6.5 -17t-15.5 -7q-49 0 -80 23.5t-49 76.5l-54 162q-24 72 -34.5 118.5t-10.5 84.5zM1194 1585q0 37 25 63.5t61 26.5q30 0 46.5 -18t16.5 -51q0 -38 -24 -63t-60 -25q-31 0 -48 17.5t-17 49.5zM1528 1585q0 37 24.5 63.5t59.5 26.5 q30 0 46.5 -18t16.5 -51q0 -38 -23 -63t-59 -25q-31 0 -48 17.5t-17 49.5z" />
<glyph unicode="&#x2c6;" d="M188 684q0 13 58 57t102 86q72 70 130 145t67 75q14 0 23.5 -42t25.5 -81q30 -75 76.5 -151.5t46.5 -82.5q0 -7 -6 -12.5t-15 -5.5q-19 0 -65.5 51.5t-116.5 148.5q-95 -87 -183.5 -142.5t-123.5 -55.5q-8 0 -13 2.5t-6 7.5z" />
<glyph unicode="&#x2dc;" d="M176 729q0 62 53 130.5t127 68.5q50 0 148.5 -38t144.5 -38q59 0 91.5 48t41.5 48t15 -4t6 -10q0 -61 -53.5 -130t-126.5 -69q-53 0 -151.5 39t-141.5 39q-59 0 -91.5 -48t-41.5 -48q-10 0 -15.5 3t-5.5 9z" />
<glyph unicode="&#x2000;" horiz-adv-x="906" />
<glyph unicode="&#x2001;" horiz-adv-x="1813" />
<glyph unicode="&#x2002;" horiz-adv-x="906" />
<glyph unicode="&#x2003;" horiz-adv-x="1813" />
<glyph unicode="&#x2004;" horiz-adv-x="604" />
<glyph unicode="&#x2005;" horiz-adv-x="453" />
<glyph unicode="&#x2006;" horiz-adv-x="302" />
<glyph unicode="&#x2007;" horiz-adv-x="302" />
<glyph unicode="&#x2008;" horiz-adv-x="226" />
<glyph unicode="&#x2009;" horiz-adv-x="362" />
<glyph unicode="&#x200a;" horiz-adv-x="100" />
<glyph unicode="&#x2010;" horiz-adv-x="563" d="M-12 236l37 98h376l-36 -98h-377z" />
<glyph unicode="&#x2011;" horiz-adv-x="563" d="M-12 236l37 98h376l-36 -98h-377z" />
<glyph unicode="&#x2012;" horiz-adv-x="563" d="M-12 236l37 98h376l-36 -98h-377z" />
<glyph unicode="&#x2013;" d="M-100 248l26 71h1024l-26 -71h-1024z" />
<glyph unicode="&#x2014;" horiz-adv-x="2048" d="M-100 248l26 71h2048l-26 -71h-2048z" />
<glyph unicode="&#x2018;" horiz-adv-x="418" d="M205 942q0 154 50 256t116 102q26 0 43.5 -19t17.5 -48q0 -52 -67 -79q-23 -9 -31 -15q-42 -31 -65 -95t-23 -149q0 -11 1 -24.5t1 -16.5q0 -7 -5 -12.5t-12 -5.5q-13 0 -19.5 26t-6.5 80z" />
<glyph unicode="&#x2019;" horiz-adv-x="418" d="M133 877q0 6 57 73.5t72 128.5q7 28 9 88q6 137 79 138q29 0 45.5 -18t16.5 -50q0 -59 -39 -129t-115 -150q-40 -42 -70.5 -69t-37.5 -27q-8 0 -12.5 4t-4.5 11z" />
<glyph unicode="&#x201a;" horiz-adv-x="418" d="M-109 -246q0 7 57 73.5t72 127.5q7 27 10 89q5 136 79 136q29 0 45 -17.5t16 -49.5q0 -59 -38.5 -129.5t-115.5 -149.5q-39 -42 -70.5 -69t-39.5 -27q-7 0 -11 4.5t-4 11.5z" />
<glyph unicode="&#x201c;" horiz-adv-x="768" d="M205 942q0 154 50 256t116 102q26 0 43.5 -19t17.5 -48q0 -52 -67 -79q-23 -9 -31 -15q-42 -31 -65 -95t-23 -149q0 -11 1 -24.5t1 -16.5q0 -7 -5 -12.5t-12 -5.5q-13 0 -19.5 26t-6.5 80zM553 942q0 153 50.5 255.5t117.5 102.5q26 0 42.5 -19t16.5 -48q0 -52 -65 -79 q-22 -9 -31 -15q-42 -31 -66 -95.5t-24 -148.5q0 -11 1 -24.5t1 -16.5q0 -7 -5 -12.5t-11 -5.5q-14 0 -20.5 26t-6.5 80z" />
<glyph unicode="&#x201d;" horiz-adv-x="768" d="M133 877q0 6 57 73.5t72 128.5q7 28 9 88q6 137 79 138q29 0 45.5 -18t16.5 -50q0 -59 -39 -129t-115 -150q-40 -42 -70.5 -69t-37.5 -27q-8 0 -12.5 4t-4.5 11zM485 877q0 6 56 73.5t71 128.5q7 28 10 88q7 137 80 138q30 0 46 -18t16 -50q0 -59 -39 -129t-115 -150 q-39 -41 -70.5 -68.5t-39.5 -27.5t-11.5 3.5t-3.5 11.5z" />
<glyph unicode="&#x201e;" horiz-adv-x="768" d="M-109 -246q0 7 57 73.5t72 127.5q7 27 10 89q5 136 79 136q29 0 45 -17.5t16 -49.5q0 -59 -38.5 -129.5t-115.5 -149.5q-40 -43 -70.5 -69.5t-37.5 -26.5q-8 0 -12.5 4.5t-4.5 11.5zM244 -246q0 7 55.5 73.5t71.5 127.5q6 26 9 87q7 138 81 138q29 0 45 -17.5t16 -49.5 q0 -59 -38.5 -129.5t-114.5 -149.5q-40 -42 -71.5 -69t-39.5 -27q-7 0 -10.5 4t-3.5 12z" />
<glyph unicode="&#x2022;" horiz-adv-x="1208" d="M307 762q0 123 87 209t210 86q122 0 208.5 -86.5t86.5 -208.5t-87.5 -209.5t-209.5 -87.5q-123 0 -209 87t-86 210z" />
<glyph unicode="&#x2026;" horiz-adv-x="2048" d="M158 57q0 37 24 62.5t60 25.5q30 0 46.5 -17.5t16.5 -49.5q0 -38 -23 -63t-59 -25q-31 0 -48 17.5t-17 49.5zM840 57q0 37 24 62.5t60 25.5q30 0 46.5 -17.5t16.5 -49.5q0 -38 -23 -63t-59 -25q-31 0 -48 17.5t-17 49.5zM1524 57q0 37 24 62.5t60 25.5q30 0 46.5 -17.5 t16.5 -49.5q0 -38 -23 -63t-59 -25q-31 0 -48 17.5t-17 49.5z" />
<glyph unicode="&#x202f;" horiz-adv-x="362" />
<glyph unicode="&#x2039;" horiz-adv-x="512" d="M49 291q107 76 204.5 165t106.5 89q8 0 12.5 -4.5t4.5 -12.5q0 -22 -39 -71.5t-162 -175.5q52 -91 81.5 -155t29.5 -85q0 -8 -4 -12t-13 -4q-8 0 -76 92t-145 174z" />
<glyph unicode="&#x203a;" horiz-adv-x="512" d="M-39 39q0 23 38.5 71.5t160.5 174.5q-51 89 -81 154.5t-30 86.5q0 9 4 13t13 4q8 0 77 -92.5t146 -174.5q-107 -76 -205.5 -164.5t-108.5 -88.5q-7 0 -10.5 4t-3.5 12z" />
<glyph unicode="&#x205f;" horiz-adv-x="453" />
<glyph unicode="&#x2122;" horiz-adv-x="1683" d="M254 1257l10 175h436l11 -175h-23q-8 81 -41.5 116.5t-101.5 35.5h-23v-426q0 -24 14 -39.5t35 -15.5h31v-25h-242v25h33q22 0 35.5 15.5t13.5 39.5v426h-22q-69 0 -102.5 -35.5t-41.5 -116.5h-22zM801 903v23h30q22 0 36 15.5t14 41.5v367q0 24 -14 40.5t-36 16.5h-30 v25h170l145 -414l158 414h162v-25h-31q-22 0 -35.5 -15t-13.5 -40v-369q0 -24 13.5 -39.5t35.5 -15.5h31v-25h-228v25h31q22 0 35.5 15.5t13.5 39.5v406l-186 -490h-8l-174 487v-403q0 -24 13.5 -39.5t35.5 -15.5h30v-25h-198z" />
<glyph unicode="&#xe000;" horiz-adv-x="615" d="M0 0v615h615v-615h-615z" />
</font>
</defs>
</svg>
